  0
SECTION
  2
HEADER
  9
$ACADVER
  1
AC1009
  9
$INSBASE
 10
0.0
 20
0.0
 30
0.0
  9
$EXTMIN
 10
-50.449999929095057
 20
64.000000274055992
 30
-0.2
  9
$EXTMAX
 10
86.125855923183849
 20
193.0000002735176
 30
0.0000000048844772
  9
$LIMMIN
 10
0.0
 20
0.0
  9
$LIMMAX
 10
790.0
 20
790.0
  9
$ORTHOMODE
 70
     0
  9
$REGENMODE
 70
     1
  9
$FILLMODE
 70
     1
  9
$QTEXTMODE
 70
     0
  9
$MIRRTEXT
 70
     1
  9
$DRAGMODE
 70
     2
  9
$LTSCALE
 40
4.0
  9
$OSMODE
 70
   167
  9
$ATTMODE
 70
     1
  9
$TEXTSIZE
 40
3.5
  9
$TRACEWID
 40
0.05
  9
$TEXTSTYLE
  7
ISO
  9
$CLAYER
  8
0
  9
$CELTYPE
  6
BYLAYER
  9
$CECOLOR
 62
   256
  9
$DIMSCALE
 40
0.0
  9
$DIMASZ
 40
3.0
  9
$DIMEXO
 40
1.5
  9
$DIMDLI
 40
10.0
  9
$DIMRND
 40
0.0
  9
$DIMDLE
 40
0.0
  9
$DIMEXE
 40
1.5
  9
$DIMTP
 40
0.0
  9
$DIMTM
 40
0.0
  9
$DIMTXT
 40
3.0
  9
$DIMCEN
 40
-5.0
  9
$DIMTSZ
 40
0.0
  9
$DIMTOL
 70
     0
  9
$DIMLIM
 70
     0
  9
$DIMTIH
 70
     0
  9
$DIMTOH
 70
     0
  9
$DIMSE1
 70
     0
  9
$DIMSE2
 70
     0
  9
$DIMTAD
 70
     1
  9
$DIMZIN
 70
     8
  9
$DIMBLK
  1

  9
$DIMASO
 70
     1
  9
$DIMSHO
 70
     1
  9
$DIMPOST
  1

  9
$DIMAPOST
  1

  9
$DIMALT
 70
     0
  9
$DIMALTD
 70
     0
  9
$DIMALTF
 40
25.399999999999999
  9
$DIMLFAC
 40
-1.0
  9
$DIMTOFL
 70
     1
  9
$DIMTVP
 40
0.0
  9
$DIMTIX
 70
     0
  9
$DIMSOXD
 70
     0
  9
$DIMSAH
 70
     0
  9
$DIMBLK1
  1

  9
$DIMBLK2
  1

  9
$DIMSTYLE
  2
MASKIN
  9
$DIMCLRD
 70
   256
  9
$DIMCLRE
 70
   256
  9
$DIMCLRT
 70
     2
  9
$DIMTFAC
 40
1.0
  9
$DIMGAP
 40
1.0
  9
$LUNITS
 70
     2
  9
$LUPREC
 70
     8
  9
$SKETCHINC
 40
0.1
  9
$FILLETRAD
 40
0.0
  9
$AUNITS
 70
     0
  9
$AUPREC
 70
     8
  9
$MENU
  1
ACAD
  9
$ELEVATION
 40
0.0
  9
$PELEVATION
 40
0.0
  9
$THICKNESS
 40
0.0
  9
$LIMCHECK
 70
     0
  9
$BLIPMODE
 70
     0
  9
$CHAMFERA
 40
0.0
  9
$CHAMFERB
 40
0.0
  9
$SKPOLY
 70
     0
  9
$TDCREATE
 40
2458299.4382186462
  9
$TDUPDATE
 40
2458303.3936209609
  9
$TDINDWG
 40
0.0886932176
  9
$TDUSRTIMER
 40
0.0886929861
  9
$USRTIMER
 70
     1
  9
$ANGBASE
 50
0.0
  9
$ANGDIR
 70
     0
  9
$PDMODE
 70
     0
  9
$PDSIZE
 40
0.0
  9
$PLINEWID
 40
0.0
  9
$COORDS
 70
     1
  9
$SPLFRAME
 70
     0
  9
$SPLINETYPE
 70
     6
  9
$SPLINESEGS
 70
     8
  9
$ATTDIA
 70
     1
  9
$ATTREQ
 70
     1
  9
$HANDLING
 70
     1
  9
$HANDSEED
  5
25A8
  9
$SURFTAB1
 70
     6
  9
$SURFTAB2
 70
     6
  9
$SURFTYPE
 70
     6
  9
$SURFU
 70
     6
  9
$SURFV
 70
     6
  9
$UCSNAME
  2

  9
$UCSORG
 10
0.0
 20
0.0
 30
0.0
  9
$UCSXDIR
 10
1.0
 20
0.0
 30
0.0
  9
$UCSYDIR
 10
0.0
 20
1.0
 30
0.0
  9
$PUCSNAME
  2

  9
$PUCSORG
 10
0.0
 20
0.0
 30
0.0
  9
$PUCSXDIR
 10
1.0
 20
0.0
 30
0.0
  9
$PUCSYDIR
 10
0.0
 20
1.0
 30
0.0
  9
$USERI1
 70
     0
  9
$USERI2
 70
     0
  9
$USERI3
 70
     0
  9
$USERI4
 70
     0
  9
$USERI5
 70
     0
  9
$USERR1
 40
0.0
  9
$USERR2
 40
0.0
  9
$USERR3
 40
0.0
  9
$USERR4
 40
0.0
  9
$USERR5
 40
0.0
  9
$WORLDVIEW
 70
     1
  9
$SHADEDGE
 70
     3
  9
$SHADEDIF
 70
    70
  9
$TILEMODE
 70
     1
  9
$MAXACTVP
 70
    32
  9
$PLIMCHECK
 70
     0
  9
$PEXTMIN
 10
1.0000000000000000E+020
 20
1.0000000000000000E+020
 30
1.0000000000000000E+020
  9
$PEXTMAX
 10
-1.0000000000000000E+020
 20
-1.0000000000000000E+020
 30
-1.0000000000000000E+020
  9
$PLIMMIN
 10
-5.069427490234375
 20
-5.8737497329711914
  9
$PLIMMAX
 10
291.89889526367187
 20
204.0995779037475
  9
$UNITMODE
 70
     0
  9
$VISRETAIN
 70
     1
  9
$PLINEGEN
 70
     0
  9
$PSLTSCALE
 70
     1
  0
ENDSEC
  0
SECTION
  2
TABLES
  0
TABLE
  2
VPORT
 70
     1
  0
VPORT
  2
*ACTIVE
 70
     0
 10
0.0
 20
0.0
 11
1.0
 21
1.0
 12
17.837927997044371
 22
195.53093818980051
 13
0.0
 23
0.0
 14
1.0
 24
1.0
 15
0.0
 25
0.0
 16
0.0
 26
0.0
 36
1.0
 17
0.0
 27
0.0
 37
0.0
 40
183.3712401220242
 41
1.7265193370165739
 42
50.0
 43
0.0
 44
0.0
 50
0.0
 51
0.0
 71
     0
 72
   100
 73
     1
 74
     1
 75
     0
 76
     0
 77
     0
 78
     0
  0
ENDTAB
  0
TABLE
  2
LTYPE
 70
     1
  0
LTYPE
  2
CONTINUOUS
 70
     0
  3
Solid line
 72
    65
 73
     0
 40
0.0
  0
ENDTAB
  0
TABLE
  2
LAYER
 70
    23
  0
LAYER
  2
0
 70
     0
 62
     7
  6
CONTINUOUS
  0
LAYER
  2
DEFPOINTS
 70
     0
 62
     7
  6
CONTINUOUS
  0
LAYER
  2
SAPA_ARTIKELNR
 70
     0
 62
     4
  6
CONTINUOUS
  0
LAYER
  2
SAPA_GLAS
 70
     0
 62
     4
  6
CONTINUOUS
  0
LAYER
  2
SAPA_FOGBAND
 70
     0
 62
     2
  6
CONTINUOUS
  0
LAYER
  2
SAPA_PROFIL
 70
     0
 62
     7
  6
CONTINUOUS
  0
LAYER
  2
SAPA_MATT
 70
     0
 62
     1
  6
CONTINUOUS
  0
ENDTAB
  0
TABLE
  2
STYLE
 70
     2
  0
STYLE
  2
STANDARD
 70
     0
 40
0.0
 41
1.0
 50
0.0
 71
     0
 42
0.2
  3
txt
  4

  0
STYLE
  2
ISO
 70
     0
 40
0.0
 41
1.0
 50
0.0
 71
     0
 42
3.5
  3
txt
  4

  0
ENDTAB
  0
TABLE
  2
VIEW
 70
     0
  0
ENDTAB
  0
TABLE
  2
UCS
 70
     0
  0
ENDTAB
  0
TABLE
  2
APPID
 70
    22
  0
APPID
  2
ACAD
 70
     0
  0
APPID
  2
ACAD_DSTYLE_DIMTEXT_FILL
 70
     0
  0
APPID
  2
ACAD_DSTYLE_DIMEXT_LENGTH
 70
     0
  0
APPID
  2
ACAD_DSTYLE_DIMEXT_ENABLED
 70
     0
  0
APPID
  2
ACAD_DSTYLE_DIM_LINETYPE
 70
     0
  0
APPID
  2
ACAD_DSTYLE_DIM_EXT1_LINETYPE
 70
     0
  0
APPID
  2
ACAD_DSTYLE_DIM_EXT2_LINETYPE
 70
     0
  0
APPID
  2
ACAD_DSTYLE_DIMJOGGED_JOGA
 70
     0
  0
APPID
  2
ACAD_DSTYLE_DIMARC_LENGTH_
 70
     0
  0
APPID
  2
ACAD_PSEXT
 70
     0
  0
APPID
  2
ACAD_MLEADERVER
 70
     0
  0
APPID
  2
ACAD_NAV_VCDISPLAY
 70
     0
  0
APPID
  2
GENIUS_GENODEF_13
 70
     0
  0
APPID
  2
RC_PROFILE
 70
     0
  0
APPID
  2
ACAECLAYERSTANDARD
 70
     0
  0
APPID
  2
GENIUS_GENOBJ-N-FIL_13
 70
     0
  0
APPID
  2
GENIUS_GENREC_14
 70
     0
  0
APPID
  2
GENIUS_GENOBJ-N-REC_13
 70
     0
  0
APPID
  2
ACCMTRANSPARENCY
 70
     0
  0
APPID
  2
GRADIENTCOLOR1ACI
 70
     0
  0
APPID
  2
GRADIENTCOLOR2ACI
 70
     0
  0
APPID
  2
ACAD_EXEMPT_FROM_CAD_STANDARDS
 70
     0
  0
ENDTAB
  0
TABLE
  2
DIMSTYLE
 70
     2
  0
DIMSTYLE
  2
STANDARD
 70
     0
  3

  4

  5

  6

  7

 40
1.0
 41
0.18
 42
0.0625
 43
0.38
 44
0.18
 45
0.0
 46
0.0
 47
0.0
 48
0.0
140
0.18
141
0.09
142
0.0
143
25.399999999999999
144
1.0
145
0.0
146
1.0
147
0.09
 71
     0
 72
     0
 73
     1
 74
     1
 75
     0
 76
     0
 77
     0
 78
     0
170
     0
171
     2
172
     0
173
     0
174
     0
175
     0
176
     0
177
     0
178
     0
  0
DIMSTYLE
  2
MASKIN
 70
     0
  3

  4

  5

  6

  7

 40
0.0
 41
3.0
 42
1.5
 43
10.0
 44
1.5
 45
0.0
 46
0.0
 47
0.0
 48
0.0
140
3.0
141
-5.0
142
0.0
143
25.399999999999999
144
-1.0
145
0.0
146
1.0
147
1.0
 71
     0
 72
     0
 73
     0
 74
     0
 75
     0
 76
     0
 77
     1
 78
     8
170
     0
171
     0
172
     1
173
     0
174
     0
175
     0
176
   256
177
   256
178
     2
  0
ENDTAB
  0
ENDSEC
  0
SECTION
  2
BLOCKS
  0
BLOCK
  8
0
  2
$MODEL_SPACE
 70
     0
 10
0.0
 20
0.0
 30
0.0
  3
$MODEL_SPACE
  1

  0
ENDBLK
  5
37
  8
0
  0
BLOCK
 67
     1
  8
0
  2
$PAPER_SPACE
 70
     0
 10
0.0
 20
0.0
 30
0.0
  3
$PAPER_SPACE
  1

  0
ENDBLK
  5
35
 67
     1
  8
0
  0
BLOCK
  8
0
  2
*D5
 70
     1
 10
0.0
 20
0.0
 30
0.0
  3
*D5
  1

  0
LINE
  5
2528
  8
SAPA_MATT
 10
17.050000070905408
 20
87.500000275329754
 30
0.0
 11
-46.449999929094787
 21
87.500000275329754
 31
0.0
  0
LINE
  5
2529
  8
SAPA_MATT
 10
0.5500000708358358
 20
92.500000274070089
 30
0.0
 11
-46.449999929094801
 21
92.500000274070089
 31
0.0
  0
LINE
  5
252A
  8
SAPA_MATT
 10
-44.949999929094787
 20
84.500000275329754
 30
0.0
 11
-44.949999929094787
 21
81.500000275329754
 31
0.0
  0
LINE
  5
252B
  8
SAPA_MATT
 10
-44.949999929094787
 20
95.500000274070104
 30
0.0
 11
-44.949999929094787
 21
98.500000274070104
 31
0.0
  0
LINE
  5
252C
  8
SAPA_MATT
 10
-44.949999929094787
 20
87.500000275329754
 30
0.0
 11
-44.949999929094787
 21
92.500000274070089
 31
0.0
  0
SOLID
  5
252D
  8
SAPA_MATT
 10
-45.449999929094801
 20
84.500000275329754
 30
0.0
 11
-44.449999929094801
 21
84.500000275329754
 31
0.0
 12
-44.949999929094787
 22
87.500000275329754
 32
0.0
 13
-44.949999929094787
 23
87.500000275329754
 33
0.0
  0
SOLID
  5
252E
  8
SAPA_MATT
 10
-45.449999929094801
 20
95.500000274070104
 30
0.0
 11
-44.449999929094801
 21
95.500000274070104
 31
0.0
 12
-44.949999929094787
 22
92.500000274070089
 32
0.0
 13
-44.949999929094787
 23
92.500000274070089
 33
0.0
  0
INSERT
  5
252F
  8
0
  2
*U10
 10
0.0
 20
0.0
 30
0.0
  0
POINT
  5
2530
  8
DEFPOINTS
 62
     0
 10
18.550000070905408
 20
87.500000275329754
 30
0.0
  0
POINT
  5
2531
  8
DEFPOINTS
 62
     0
 10
2.0500000708358348
 20
92.500000274070089
 30
0.0
  0
POINT
  5
2532
  8
DEFPOINTS
 62
     0
 10
-44.949999929094787
 20
92.500000274070089
 30
0.0
  0
ENDBLK
  5
24D9
  8
0
  0
BLOCK
  8
0
  2
*D6
 70
     1
 10
0.0
 20
0.0
 30
0.0
  3
*D6
  1

  0
LINE
  5
2595
  8
SAPA_MATT
 10
0.5500000709768075
 20
152.5000002733334
 30
0.0
 11
-46.449999929095029
 21
152.5000002733334
 31
0.0
  0
LINE
  5
2596
  8
SAPA_MATT
 10
0.5500000708358358
 20
92.500000274070089
 30
0.0
 11
-46.449999929095043
 21
92.500000274070089
 31
0.0
  0
LINE
  5
2597
  8
SAPA_MATT
 10
-44.949999929095029
 20
149.5000002733334
 30
0.0
 11
-44.949999929095043
 21
95.500000274070104
 31
0.0
  0
SOLID
  5
2598
  8
SAPA_MATT
 10
-45.449999929095021
 20
149.5000002733334
 30
0.0
 11
-44.449999929095029
 21
149.5000002733334
 31
0.0
 12
-44.949999929095029
 22
152.5000002733334
 32
0.0
 13
-44.949999929095029
 23
152.5000002733334
 33
0.0
  0
SOLID
  5
2599
  8
SAPA_MATT
 10
-45.449999929095043
 20
95.500000274070104
 30
0.0
 11
-44.449999929095043
 21
95.500000274070104
 31
0.0
 12
-44.949999929095043
 22
92.500000274070089
 32
0.0
 13
-44.949999929095043
 23
92.500000274070089
 33
0.0
  0
TEXT
  8
SAPA_MATT
  40
3
  5
25A6
  62
2
  72
0
  71
0
 10
-53.4500
 20
117.190
 30
0.000000
  1
60
  7
ISO
  0
POINT
  5
259B
  8
DEFPOINTS
 62
     0
 10
2.0500000709768069
 20
152.5000002733334
 30
0.0
  0
POINT
  5
259C
  8
DEFPOINTS
 62
     0
 10
2.0500000708358348
 20
92.500000274070089
 30
0.0
  0
POINT
  5
259D
  8
DEFPOINTS
 62
     0
 10
-44.949999929095043
 20
92.500000274070089
 30
0.0
  0
ENDBLK
  5
24E7
  8
0
  0
BLOCK
  8
0
  2
*D7
 70
     1
 10
0.0
 20
0.0
 30
0.0
  3
*D7
  1

  0
LINE
  5
2514
  8
SAPA_MATT
 10
17.050000070905408
 20
157.50000027351729
 30
0.0
 11
-46.449999929095007
 21
157.50000027351729
 31
0.0
  0
LINE
  5
2515
  8
SAPA_MATT
 10
0.5500000709768075
 20
152.5000002733334
 30
0.0
 11
-46.449999929095007
 21
152.5000002733334
 31
0.0
  0
LINE
  5
2516
  8
SAPA_MATT
 10
-44.949999929095007
 20
160.50000027351729
 30
0.0
 11
-44.949999929095007
 21
163.50000027351729
 31
0.0
  0
LINE
  5
2517
  8
SAPA_MATT
 10
-44.949999929095007
 20
149.5000002733334
 30
0.0
 11
-44.949999929095007
 21
146.5000002733334
 31
0.0
  0
LINE
  5
2518
  8
SAPA_MATT
 10
-44.949999929095007
 20
157.50000027351729
 30
0.0
 11
-44.949999929095007
 21
152.5000002733334
 31
0.0
  0
SOLID
  5
2519
  8
SAPA_MATT
 10
-45.449999929095007
 20
160.50000027351729
 30
0.0
 11
-44.449999929095007
 21
160.50000027351729
 31
0.0
 12
-44.949999929095007
 22
157.50000027351729
 32
0.0
 13
-44.949999929095007
 23
157.50000027351729
 33
0.0
  0
SOLID
  5
251A
  8
SAPA_MATT
 10
-45.449999929095007
 20
149.5000002733334
 30
0.0
 11
-44.449999929095007
 21
149.5000002733334
 31
0.0
 12
-44.949999929095007
 22
152.5000002733334
 32
0.0
 13
-44.949999929095007
 23
152.5000002733334
 33
0.0
  0
INSERT
  5
251B
  8
0
  2
*U9
 10
0.0
 20
0.0
 30
0.0
  0
POINT
  5
251C
  8
DEFPOINTS
 62
     0
 10
18.550000070905408
 20
157.50000027351729
 30
0.0
  0
POINT
  5
251D
  8
DEFPOINTS
 62
     0
 10
2.0500000709768069
 20
152.5000002733334
 30
0.0
  0
POINT
  5
251E
  8
DEFPOINTS
 62
     0
 10
-44.949999929095007
 20
152.5000002733334
 30
0.0
  0
ENDBLK
  5
24F3
  8
0
  0
BLOCK
  8
0
  2
*D8
 70
     1
 10
0.0
 20
0.0
 30
0.0
  3
*D8
  1

  0
LINE
  5
258C
  8
SAPA_MATT
 10
68.550000070877203
 20
151.1856638106124
 30
0.0
 11
68.550000070877203
 21
189.0000002735176
 31
0.0
  0
LINE
  5
258D
  8
SAPA_MATT
 10
-14.44999992907276
 20
151.17605934109059
 30
0.0
 11
-14.44999992907276
 21
189.0000002735176
 31
0.0
  0
LINE
  5
258E
  8
SAPA_MATT
 10
65.550000070877218
 20
187.50000027351749
 30
0.0
 11
-11.44999992907276
 21
187.50000027351749
 31
0.0
  0
SOLID
  5
258F
  8
SAPA_MATT
 10
65.550000070877218
 20
188.0000002735176
 30
0.0
 11
65.550000070877218
 21
187.00000027351749
 31
0.0
 12
68.550000070877203
 22
187.50000027351749
 32
0.0
 13
68.550000070877203
 23
187.50000027351749
 33
0.0
  0
SOLID
  5
2590
  8
SAPA_MATT
 10
-11.44999992907276
 20
188.0000002735176
 30
0.0
 11
-11.44999992907276
 21
187.00000027351749
 31
0.0
 12
-14.44999992907276
 22
187.50000027351749
 32
0.0
 13
-14.44999992907276
 23
187.50000027351749
 33
0.0
  0
TEXT
  8
SAPA_MATT
  40
3
  5
25A7
  62
2
  72
0
  71
0
 10
21.0500
 20
184.690
 30
0.000000
  1
83
  7
ISO
  0
POINT
  5
2592
  8
DEFPOINTS
 62
     0
 10
68.550000070877203
 20
149.68566381061231
 30
0.0
  0
POINT
  5
2593
  8
DEFPOINTS
 62
     0
 10
-14.44999992907276
 20
149.67605934109059
 30
0.0
  0
POINT
  5
2594
  8
DEFPOINTS
 62
     0
 10
-14.44999992907276
 20
187.50000027351749
 30
0.0
  0
ENDBLK
  5
2501
  8
0
  0
BLOCK
  8
0
  2
*U9
 70
     1
 10
0.0
 20
0.0
 30
0.0
  3
*U9
  1

  0
TEXT
  5
259F
  8
SAPA_MATT
 62
     2
 10
-45.949999929095043
 20
153.9500002734253
 30
0.0
 40
3.0
  1
5
 50
90.0
  7
ISO
  0
ENDBLK
  5
25A1
  8
0
  0
BLOCK
  8
0
  2
*U10
 70
     1
 10
0.0
 20
0.0
 30
0.0
  3
*U10
  1

  0
TEXT
  5
25A3
  8
SAPA_MATT
 62
     2
 10
-45.949999929094808
 20
88.950000274699917
 30
0.0
 40
3.0
  1
5
 50
90.0
  7
ISO
  0
ENDBLK
  5
25A5
  8
0
  0
ENDSEC
  0
SECTION
  2
ENTITIES
  0
LINE
  5
1FF1
  8
SAPA_GLAS
 10
-12.74999992917571
 20
149.2500001377295
 30
0.0
 11
-12.74999992917571
 21
148.5000001377164
 31
0.0
  0
LINE
  5
1FF2
  8
SAPA_GLAS
 10
0.050000070835381
 20
148.5000001377164
 30
0.0
 11
0.0500000708362904
 21
149.2500001377154
 31
0.0
  0
LINE
  5
1FF4
  8
SAPA_GLAS
 10
-12.74999992917571
 20
95.75000013736485
 30
0.0
 11
-12.74999992917571
 21
96.500000137378038
 31
0.0
  0
LINE
  5
1FF5
  8
SAPA_GLAS
 10
0.050000070835381
 20
96.500000137378038
 30
0.0
 11
0.0500000708362904
 21
95.750000137378947
 31
0.0
  0
LINE
  5
2001
  8
SAPA_GLAS
 10
66.925855923194945
 20
95.750000409834456
 30
0.0
 11
66.925855923194945
 21
96.500000409847644
 31
0.0
  0
LINE
  5
2002
  8
SAPA_GLAS
 10
54.125855923183849
 20
96.500000409847644
 30
0.0
 11
54.125855923182932
 21
95.750000409848553
 31
0.0
  0
LINE
  5
2004
  8
SAPA_GLAS
 10
66.925855923194945
 20
149.25000041019911
 30
0.0
 11
66.925855923194945
 21
148.500000410186
 31
0.0
  0
LINE
  5
2005
  8
SAPA_GLAS
 10
54.125855923183849
 20
148.500000410186
 30
0.0
 11
54.125855923182932
 21
149.25000041018509
 31
0.0
  0
LINE
  5
200C
  8
SAPA_FOGBAND
 10
21.961399562060372
 20
154.3995677413852
 30
0.0
 11
21.961399562063999
 21
149.9357477681813
 31
0.0
  0
LINE
  5
200D
  8
SAPA_FOGBAND
 10
22.11139956206182
 20
149.9357477681813
 30
0.0
 11
22.11139956206182
 21
154.3995677413852
 31
0.0
  0
LINE
  5
2011
  8
SAPA_FOGBAND
 10
30.46139956206946
 20
154.3995677413852
 30
0.0
 11
30.461399562073101
 21
149.9357477681813
 31
0.0
  0
LINE
  5
2012
  8
SAPA_FOGBAND
 10
30.611399562070918
 20
149.9357477681813
 30
0.0
 11
30.611399562070918
 21
154.3995677413852
 31
0.0
  0
LINE
  5
2016
  8
SAPA_FOGBAND
 10
21.961399562060372
 20
90.600432806071922
 30
0.0
 11
21.961399562063999
 21
95.064252779275876
 31
0.0
  0
LINE
  5
2017
  8
SAPA_FOGBAND
 10
22.11139956206182
 20
95.064252779275876
 30
0.0
 11
22.11139956206182
 21
90.600432806071922
 31
0.0
  0
LINE
  5
201B
  8
SAPA_FOGBAND
 10
30.46139956206946
 20
90.600432806071922
 30
0.0
 11
30.461399562073101
 21
95.064252779275876
 31
0.0
  0
LINE
  5
201C
  8
SAPA_FOGBAND
 10
30.611399562070918
 20
95.064252779275876
 30
0.0
 11
30.611399562070918
 21
90.600432806071922
 31
0.0
  0
TEXT
  5
201E
  8
SAPA_ARTIKELNR
 10
-4.2724881264524583
 20
81.889806625531946
 30
0.0000000048844772
 40
3.5
  1
D9V008
  7
ISO
  0
TEXT
  5
201F
  8
SAPA_ARTIKELNR
 10
44.659185676529077
 20
86.544492865971264
 30
0.0000000048844772
 40
3.5
  1
D9V011
  7
ISO
  0
LINE
  5
2164
  8
SAPA_FOGBAND
 10
30.686399562071639
 20
90.600432806071922
 30
0.0
 11
30.796396947254038
 21
94.814883446086014
 31
0.0
  0
LINE
  5
2165
  8
SAPA_FOGBAND
 10
30.796396947254038
 20
94.814883446086014
 30
0.0
 11
33.23449028767584
 21
94.814306947211435
 31
0.0
  0
LINE
  5
2166
  8
SAPA_FOGBAND
 10
33.23449028767584
 20
94.814306947211435
 30
0.0
 11
32.10908916521123
 21
90.600432806071922
 31
0.0
  0
LINE
  5
2169
  8
SAPA_FOGBAND
 10
28.96370995892914
 20
90.600432806071922
 30
0.0
 11
27.838263361613031
 21
94.814476661678555
 31
0.0
  0
LINE
  5
216A
  8
SAPA_FOGBAND
 10
27.838263361613031
 20
94.814476661678555
 30
0.0
 11
30.276401408162311
 21
94.814912802498597
 31
0.0
  0
LINE
  5
216B
  8
SAPA_FOGBAND
 10
30.276401408162311
 20
94.814912802498597
 30
0.0
 11
30.386399562068728
 21
90.600432806071922
 31
0.0
  0
LINE
  5
216C
  8
SAPA_FOGBAND
 10
33.686399562068907
 20
89.800432806070816
 30
0.0
 11
33.686399562068907
 21
90.600432806071922
 31
0.0
  0
LINE
  5
216D
  8
SAPA_FOGBAND
 10
33.686399562068907
 20
90.600432806071922
 30
0.0
 11
27.38639956207146
 21
90.600432806071922
 31
0.0
  0
LINE
  5
216E
  8
SAPA_FOGBAND
 10
27.38639956207146
 20
90.600432806071922
 30
0.0
 11
27.38639956207146
 21
89.800432806070816
 31
0.0
  0
LINE
  5
216F
  8
SAPA_FOGBAND
 10
27.38639956207146
 20
89.800432806070816
 30
0.0
 11
33.686399562068907
 21
89.800432806070816
 31
0.0
  0
LINE
  5
2170
  8
SAPA_FOGBAND
 10
22.186399562062551
 20
90.600432806071922
 30
0.0
 11
22.29639694724494
 21
94.814883446086014
 31
0.0
  0
LINE
  5
2171
  8
SAPA_FOGBAND
 10
22.29639694724494
 20
94.814883446086014
 30
0.0
 11
24.734490287666748
 21
94.814306947211435
 31
0.0
  0
LINE
  5
2172
  8
SAPA_FOGBAND
 10
24.734490287666748
 20
94.814306947211435
 30
0.0
 11
23.609089165202139
 21
90.600432806071922
 31
0.0
  0
LINE
  5
2173
  8
SAPA_FOGBAND
 10
20.463709958920049
 20
90.600432806071922
 30
0.0
 11
19.338263361603929
 21
94.814476661678555
 31
0.0
  0
LINE
  5
2174
  8
SAPA_FOGBAND
 10
19.338263361603929
 20
94.814476661678555
 30
0.0
 11
21.77640140815322
 21
94.814912802498597
 31
0.0
  0
LINE
  5
2175
  8
SAPA_FOGBAND
 10
21.77640140815322
 20
94.814912802498597
 30
0.0
 11
21.886399562059641
 21
90.600432806071922
 31
0.0
  0
LINE
  5
2176
  8
SAPA_FOGBAND
 10
25.186399562059819
 20
89.800432806070816
 30
0.0
 11
25.186399562059819
 21
90.600432806071922
 31
0.0
  0
LINE
  5
2177
  8
SAPA_FOGBAND
 10
25.186399562059819
 20
90.600432806071922
 30
0.0
 11
18.886399562062358
 21
90.600432806071922
 31
0.0
  0
LINE
  5
2178
  8
SAPA_FOGBAND
 10
18.886399562062358
 20
90.600432806071922
 30
0.0
 11
18.886399562062358
 21
89.800432806070816
 31
0.0
  0
LINE
  5
2179
  8
SAPA_FOGBAND
 10
18.886399562062358
 20
89.800432806070816
 30
0.0
 11
25.186399562059819
 21
89.800432806070816
 31
0.0
  0
LINE
  5
217A
  8
SAPA_FOGBAND
 10
30.686399562071639
 20
154.3995677413852
 30
0.0
 11
30.796396947254038
 21
150.18511710137111
 31
0.0
  0
LINE
  5
217B
  8
SAPA_FOGBAND
 10
30.796396947254038
 20
150.18511710137111
 30
0.0
 11
33.23449028767584
 21
150.18569360024571
 31
0.0
  0
LINE
  5
217C
  8
SAPA_FOGBAND
 10
33.23449028767584
 20
150.18569360024571
 30
0.0
 11
32.10908916521123
 21
154.3995677413852
 31
0.0
  0
LINE
  5
217D
  8
SAPA_FOGBAND
 10
28.96370995892914
 20
154.3995677413852
 30
0.0
 11
27.838263361613031
 21
150.18552388577859
 31
0.0
  0
LINE
  5
217E
  8
SAPA_FOGBAND
 10
27.838263361613031
 20
150.18552388577859
 30
0.0
 11
30.276401408162311
 21
150.18508774495851
 31
0.0
  0
LINE
  5
217F
  8
SAPA_FOGBAND
 10
30.276401408162311
 20
150.18508774495851
 30
0.0
 11
30.386399562068728
 21
154.3995677413852
 31
0.0
  0
LINE
  5
2180
  8
SAPA_FOGBAND
 10
33.686399562068907
 20
155.19956774138629
 30
0.0
 11
33.686399562068907
 21
154.3995677413852
 31
0.0
  0
LINE
  5
2181
  8
SAPA_FOGBAND
 10
33.686399562068907
 20
154.3995677413852
 30
0.0
 11
27.38639956207146
 21
154.3995677413852
 31
0.0
  0
LINE
  5
2182
  8
SAPA_FOGBAND
 10
27.38639956207146
 20
154.3995677413852
 30
0.0
 11
27.38639956207146
 21
155.19956774138629
 31
0.0
  0
LINE
  5
2183
  8
SAPA_FOGBAND
 10
27.38639956207146
 20
155.19956774138629
 30
0.0
 11
33.686399562068907
 21
155.19956774138629
 31
0.0
  0
LINE
  5
2184
  8
SAPA_FOGBAND
 10
22.186399562062551
 20
154.3995677413852
 30
0.0
 11
22.29639694724494
 21
150.18511710137111
 31
0.0
  0
LINE
  5
2185
  8
SAPA_FOGBAND
 10
22.29639694724494
 20
150.18511710137111
 30
0.0
 11
24.734490287666748
 21
150.18569360024571
 31
0.0
  0
LINE
  5
2186
  8
SAPA_FOGBAND
 10
24.734490287666748
 20
150.18569360024571
 30
0.0
 11
23.609089165202139
 21
154.3995677413852
 31
0.0
  0
LINE
  5
2187
  8
SAPA_FOGBAND
 10
20.463709958920049
 20
154.3995677413852
 30
0.0
 11
19.338263361603929
 21
150.18552388577859
 31
0.0
  0
LINE
  5
2188
  8
SAPA_FOGBAND
 10
19.338263361603929
 20
150.18552388577859
 30
0.0
 11
21.77640140815322
 21
150.18508774495851
 31
0.0
  0
LINE
  5
2189
  8
SAPA_FOGBAND
 10
21.77640140815322
 20
150.18508774495851
 30
0.0
 11
21.886399562059641
 21
154.3995677413852
 31
0.0
  0
LINE
  5
218A
  8
SAPA_FOGBAND
 10
25.186399562059819
 20
155.19956774138629
 30
0.0
 11
25.186399562059819
 21
154.3995677413852
 31
0.0
  0
LINE
  5
218B
  8
SAPA_FOGBAND
 10
25.186399562059819
 20
154.3995677413852
 30
0.0
 11
18.886399562062358
 21
154.3995677413852
 31
0.0
  0
LINE
  5
218C
  8
SAPA_FOGBAND
 10
18.886399562062358
 20
154.3995677413852
 30
0.0
 11
18.886399562062358
 21
155.19956774138629
 31
0.0
  0
LINE
  5
218D
  8
SAPA_FOGBAND
 10
18.886399562062358
 20
155.19956774138629
 30
0.0
 11
25.186399562059819
 21
155.19956774138629
 31
0.0
  0
LINE
  5
218E
  8
SAPA_GLAS
 10
86.125855923183849
 20
140.50000041016941
 30
0.0
 11
54.125855923183849
 21
140.50000041016941
 31
0.0
  0
LINE
  5
218F
  8
SAPA_GLAS
 10
54.125855923183849
 20
140.50000041016941
 30
0.0
 11
54.125855923183849
 21
148.50000041016929
 31
0.0
  0
LINE
  5
2190
  8
SAPA_GLAS
 10
54.125855923183849
 20
148.50000041016929
 30
0.0
 11
86.125855923183849
 21
148.50000041016929
 31
0.0
  0
LINE
  5
2191
  8
SAPA_GLAS
 10
64.125855923183849
 20
140.50000041016941
 30
0.0
 11
64.125855923183849
 21
125.50000041016931
 31
0.0
  0
LINE
  5
2192
  8
SAPA_GLAS
 10
64.125855923183849
 20
125.50000041016931
 30
0.0
 11
54.125855923183849
 21
125.50000041016931
 31
0.0
  0
LINE
  5
2193
  8
SAPA_GLAS
 10
54.125855923183849
 20
125.50000041016931
 30
0.0
 11
54.125855923183849
 21
140.50000041016941
 31
0.0
  0
LINE
  5
2194
  8
SAPA_GLAS
 10
54.125855923183849
 20
140.50000041016941
 30
0.0
 11
64.125855923183849
 21
140.50000041016941
 31
0.0
  0
LINE
  5
2195
  8
SAPA_GLAS
 10
86.125855923183849
 20
119.50000041016931
 30
0.0
 11
54.125855923183849
 21
119.50000041016931
 31
0.0
  0
LINE
  5
2196
  8
SAPA_GLAS
 10
54.125855923183849
 20
119.50000041016931
 30
0.0
 11
54.125855923183849
 21
125.50000041016931
 31
0.0
  0
LINE
  5
2197
  8
SAPA_GLAS
 10
54.125855923183849
 20
125.50000041016931
 30
0.0
 11
86.125855923183849
 21
125.50000041016931
 31
0.0
  0
LINE
  5
2198
  8
SAPA_GLAS
 10
54.125855923183259
 20
148.97713686751709
 30
0.0
 11
54.398719466191139
 21
149.25000041052499
 31
0.0
1001
ACAD
1010
0.0
1020
0.0
1030
0.0
  0
LINE
  5
2199
  8
SAPA_GLAS
 10
54.771251480985711
 20
148.500000410186
 30
0.0
 11
55.521251481325997
 21
149.25000041052621
 31
0.0
1001
ACAD
1010
0.0
1020
0.0
1030
0.0
  0
LINE
  5
219A
  8
SAPA_GLAS
 10
55.893783496119347
 20
148.500000410186
 30
0.0
 11
56.643783496460863
 21
149.25000041052749
 31
0.0
1001
ACAD
1010
0.0
1020
0.0
1030
0.0
  0
LINE
  5
219B
  8
SAPA_GLAS
 10
57.016315511252991
 20
148.500000410186
 30
0.0
 11
57.766315511595742
 21
149.25000041052871
 31
0.0
1001
ACAD
1010
0.0
1020
0.0
1030
0.0
  0
LINE
  5
219C
  8
SAPA_GLAS
 10
58.138847526386641
 20
148.500000410186
 30
0.0
 11
58.888847526730594
 21
149.25000041052991
 31
0.0
1001
ACAD
1010
0.0
1020
0.0
1030
0.0
  0
LINE
  5
219D
  8
SAPA_GLAS
 10
59.261379541520292
 20
148.500000410186
 30
0.0
 11
60.011379541865438
 21
149.2500004105311
 31
0.0
1001
ACAD
1010
0.0
1020
0.0
1030
0.0
  0
LINE
  5
219E
  8
SAPA_GLAS
 10
60.383911556653928
 20
148.500000410186
 30
0.0
 11
61.13391155700031
 21
149.25000041053229
 31
0.0
1001
ACAD
1010
0.0
1020
0.0
1030
0.0
  0
LINE
  5
219F
  8
SAPA_GLAS
 10
61.506443571787571
 20
148.500000410186
 30
0.0
 11
62.256443572135169
 21
149.2500004105336
 31
0.0
1001
ACAD
1010
0.0
1020
0.0
1030
0.0
  0
LINE
  5
21A0
  8
SAPA_GLAS
 10
62.628975586921221
 20
148.500000410186
 30
0.0
 11
63.378975587270041
 21
149.2500004105348
 31
0.0
1001
ACAD
1010
0.0
1020
0.0
1030
0.0
  0
LINE
  5
21A1
  8
SAPA_GLAS
 10
63.751507602054858
 20
148.500000410186
 30
0.0
 11
64.501507602404885
 21
149.25000041053599
 31
0.0
1001
ACAD
1010
0.0
1020
0.0
1030
0.0
  0
LINE
  5
21A2
  8
SAPA_GLAS
 10
64.874039617188515
 20
148.500000410186
 30
0.0
 11
65.624039617539751
 21
149.25000041053721
 31
0.0
1001
ACAD
1010
0.0
1020
0.0
1030
0.0
  0
LINE
  5
21A3
  8
SAPA_GLAS
 10
65.996571632322144
 20
148.500000410186
 30
0.0
 11
66.746571632674602
 21
149.25000041053841
 31
0.0
1001
ACAD
1010
0.0
1020
0.0
1030
0.0
  0
LINE
  5
21A4
  8
SAPA_GLAS
 10
54.656856948322528
 20
148.500000410186
 30
0.0
 11
54.125855923183209
 21
149.03100143532529
 31
0.0
1001
ACAD
1010
0.0
1020
0.0
1030
0.0
  0
LINE
  5
21A5
  8
SAPA_GLAS
 10
55.779388963456178
 20
148.500000410186
 30
0.0
 11
55.029388963116432
 21
149.2500004105257
 31
0.0
1001
ACAD
1010
0.0
1020
0.0
1030
0.0
  0
LINE
  5
21A6
  8
SAPA_GLAS
 10
56.901920978589821
 20
148.500000410186
 30
0.0
 11
56.151920978248839
 21
149.25000041052701
 31
0.0
1001
ACAD
1010
0.0
1020
0.0
1030
0.0
  0
LINE
  5
21A7
  8
SAPA_GLAS
 10
58.024452993723457
 20
148.500000410186
 30
0.0
 11
57.27445299338126
 21
149.2500004105282
 31
0.0
1001
ACAD
1010
0.0
1020
0.0
1030
0.0
  0
LINE
  5
21A8
  8
SAPA_GLAS
 10
59.146985008857122
 20
148.500000410186
 30
0.0
 11
58.396985008513688
 21
149.2500004105294
 31
0.0
1001
ACAD
1010
0.0
1020
0.0
1030
0.0
  0
LINE
  5
21A9
  8
SAPA_GLAS
 10
60.269517023990758
 20
148.500000410186
 30
0.0
 11
59.519517023646117
 21
149.25000041053059
 31
0.0
1001
ACAD
1010
0.0
1020
0.0
1030
0.0
  0
LINE
  5
21AA
  8
SAPA_GLAS
 10
61.392049039124402
 20
148.500000410186
 30
0.0
 11
60.642049038778552
 21
149.25000041053181
 31
0.0
1001
ACAD
1010
0.0
1020
0.0
1030
0.0
  0
LINE
  5
21AB
  8
SAPA_GLAS
 10
62.514581054258038
 20
148.500000410186
 30
0.0
 11
61.764581053910973
 21
149.250000410533
 31
0.0
1001
ACAD
1010
0.0
1020
0.0
1030
0.0
  0
LINE
  5
21AC
  8
SAPA_GLAS
 10
63.637113069391688
 20
148.500000410186
 30
0.0
 11
62.887113069043409
 21
149.2500004105342
 31
0.0
1001
ACAD
1010
0.0
1020
0.0
1030
0.0
  0
LINE
  5
21AD
  8
SAPA_GLAS
 10
64.759645084525346
 20
148.500000410186
 30
0.0
 11
64.00964508417583
 21
149.25000041053551
 31
0.0
1001
ACAD
1010
0.0
1020
0.0
1030
0.0
  0
LINE
  5
21AE
  8
SAPA_GLAS
 10
65.882177099658975
 20
148.500000410186
 30
0.0
 11
65.132177099308251
 21
149.2500004105367
 31
0.0
1001
ACAD
1010
0.0
1020
0.0
1030
0.0
  0
LINE
  5
21AF
  8
SAPA_GLAS
 10
66.925855923194931
 20
148.57885360178361
 30
0.0
 11
66.254709114440686
 21
149.25000041053789
 31
0.0
1001
ACAD
1010
0.0
1020
0.0
1030
0.0
  0
LINE
  5
21B0
  8
SAPA_GLAS
 10
54.125855923183501
 20
96.218132156236166
 30
0.0
 11
54.407724176794979
 21
96.500000409847644
 31
0.0
1001
ACAD
1010
0.0
1020
0.0
1030
0.0
  0
LINE
  5
21B1
  8
SAPA_GLAS
 10
54.780256191589132
 20
95.750000409508147
 30
0.0
 11
55.530256191928629
 21
96.500000409847644
 31
0.0
1001
ACAD
1010
0.0
1020
0.0
1030
0.0
  0
LINE
  5
21B2
  8
SAPA_GLAS
 10
55.902788206721567
 20
95.750000409506924
 30
0.0
 11
56.652788207062272
 21
96.500000409847644
 31
0.0
1001
ACAD
1010
0.0
1020
0.0
1030
0.0
  0
LINE
  5
21B3
  8
SAPA_GLAS
 10
57.025320221853988
 20
95.750000409505716
 30
0.0
 11
57.775320222195923
 21
96.500000409847644
 31
0.0
1001
ACAD
1010
0.0
1020
0.0
1030
0.0
  0
LINE
  5
21B4
  8
SAPA_GLAS
 10
58.147852236986417
 20
95.750000409504494
 30
0.0
 11
58.897852237329559
 21
96.500000409847644
 31
0.0
1001
ACAD
1010
0.0
1020
0.0
1030
0.0
  0
LINE
  5
21B5
  8
SAPA_GLAS
 10
59.270384252118838
 20
95.750000409503286
 30
0.0
 11
60.020384252463202
 21
96.500000409847644
 31
0.0
1001
ACAD
1010
0.0
1020
0.0
1030
0.0
  0
LINE
  5
21B6
  8
SAPA_GLAS
 10
60.392916267251273
 20
95.750000409502064
 30
0.0
 11
61.142916267596839
 21
96.500000409847644
 31
0.0
1001
ACAD
1010
0.0
1020
0.0
1030
0.0
  0
LINE
  5
21B7
  8
SAPA_GLAS
 10
61.515448282383701
 20
95.750000409500856
 30
0.0
 11
62.265448282730482
 21
96.500000409847644
 31
0.0
1001
ACAD
1010
0.0
1020
0.0
1030
0.0
  0
LINE
  5
21B8
  8
SAPA_GLAS
 10
62.637980297516137
 20
95.750000409499634
 30
0.0
 11
63.387980297864139
 21
96.500000409847644
 31
0.0
1001
ACAD
1010
0.0
1020
0.0
1030
0.0
  0
LINE
  5
21B9
  8
SAPA_GLAS
 10
63.760512312648558
 20
95.750000409498398
 30
0.0
 11
64.510512312997776
 21
96.500000409847644
 31
0.0
1001
ACAD
1010
0.0
1020
0.0
1030
0.0
  0
LINE
  5
21BA
  8
SAPA_GLAS
 10
64.883044327780993
 20
95.750000409497204
 30
0.0
 11
65.633044328131433
 21
96.500000409847644
 31
0.0
1001
ACAD
1010
0.0
1020
0.0
1030
0.0
  0
LINE
  5
21BB
  8
SAPA_GLAS
 10
66.005576342913415
 20
95.750000409495982
 30
0.0
 11
66.755576343265076
 21
96.500000409847644
 31
0.0
1001
ACAD
1010
0.0
1020
0.0
1030
0.0
  0
LINE
  5
21BC
  8
SAPA_GLAS
 10
54.647852237718944
 20
95.750000409508289
 30
0.0
 11
54.125855923183572
 21
96.27199672404366
 31
0.0
1001
ACAD
1010
0.0
1020
0.0
1030
0.0
  0
LINE
  5
21BD
  8
SAPA_GLAS
 10
55.770384252853802
 20
95.750000409507081
 30
0.0
 11
55.020384252513217
 21
96.500000409847644
 31
0.0
1001
ACAD
1010
0.0
1020
0.0
1030
0.0
  0
LINE
  5
21BE
  8
SAPA_GLAS
 10
56.89291626798866
 20
95.750000409505873
 30
0.0
 11
56.142916267646861
 21
96.500000409847658
 31
0.0
1001
ACAD
1010
0.0
1020
0.0
1030
0.0
  0
LINE
  5
21BF
  8
SAPA_GLAS
 10
58.015448283123511
 20
95.750000409504636
 30
0.0
 11
57.265448282780511
 21
96.500000409847644
 31
0.0
1001
ACAD
1010
0.0
1020
0.0
1030
0.0
  0
LINE
  5
21C0
  8
SAPA_GLAS
 10
59.13798029825837
 20
95.750000409503443
 30
0.0
 11
58.387980297914162
 21
96.500000409847658
 31
0.0
1001
ACAD
1010
0.0
1020
0.0
1030
0.0
  0
LINE
  5
21C1
  8
SAPA_GLAS
 10
60.260512313393242
 20
95.750000409502206
 30
0.0
 11
59.510512313047812
 21
96.500000409847644
 31
0.0
1001
ACAD
1010
0.0
1020
0.0
1030
0.0
  0
LINE
  5
21C2
  8
SAPA_GLAS
 10
61.383044328528086
 20
95.750000409500984
 30
0.0
 11
60.633044328181448
 21
96.500000409847658
 31
0.0
1001
ACAD
1010
0.0
1020
0.0
1030
0.0
  0
LINE
  5
21C3
  8
SAPA_GLAS
 10
62.505576343662959
 20
95.750000409499776
 30
0.0
 11
61.755576343315091
 21
96.500000409847644
 31
0.0
1001
ACAD
1010
0.0
1020
0.0
1030
0.0
  0
LINE
  5
21C4
  8
SAPA_GLAS
 10
63.62810835879781
 20
95.750000409498568
 30
0.0
 11
62.878108358448728
 21
96.500000409847644
 31
0.0
1001
ACAD
1010
0.0
1020
0.0
1030
0.0
  0
LINE
  5
21C5
  8
SAPA_GLAS
 10
64.750640373932654
 20
95.750000409497346
 30
0.0
 11
64.000640373582371
 21
96.500000409847644
 31
0.0
1001
ACAD
1010
0.0
1020
0.0
1030
0.0
  0
LINE
  5
21C6
  8
SAPA_GLAS
 10
65.873172389067534
 20
95.750000409496124
 30
0.0
 11
65.123172388716014
 21
96.500000409847658
 31
0.0
1001
ACAD
1010
0.0
1020
0.0
1030
0.0
  0
LINE
  5
21C7
  8
SAPA_GLAS
 10
66.925855923194945
 20
95.819848890502385
 30
0.0
 11
66.245704403849672
 21
96.500000409847658
 31
0.0
1001
ACAD
1010
0.0
1020
0.0
1030
0.0
  0
LINE
  5
21C8
  8
SAPA_GLAS
 10
64.125855923183849
 20
119.5000004100086
 30
0.0
 11
64.125855923183849
 21
104.5000004100086
 31
0.0
  0
LINE
  5
21C9
  8
SAPA_GLAS
 10
64.125855923183849
 20
104.5000004100086
 30
0.0
 11
54.125855923183849
 21
104.5000004100086
 31
0.0
  0
LINE
  5
21CA
  8
SAPA_GLAS
 10
54.125855923183849
 20
104.5000004100086
 30
0.0
 11
54.125855923183849
 21
119.5000004100086
 31
0.0
  0
LINE
  5
21CB
  8
SAPA_GLAS
 10
54.125855923183849
 20
119.5000004100086
 30
0.0
 11
64.125855923183849
 21
119.5000004100086
 31
0.0
  0
LINE
  5
21CC
  8
SAPA_GLAS
 10
86.125855923183849
 20
96.500000410008397
 30
0.0
 11
54.125855923183849
 21
96.500000410008397
 31
0.0
  0
LINE
  5
21CD
  8
SAPA_GLAS
 10
54.125855923183849
 20
96.500000410008397
 30
0.0
 11
54.125855923183849
 21
104.5000004100084
 31
0.0
  0
LINE
  5
21CE
  8
SAPA_GLAS
 10
54.125855923183849
 20
104.5000004100084
 30
0.0
 11
86.125855923183849
 21
104.5000004100084
 31
0.0
  0
ARC
  5
21CF
  8
SAPA_PROFIL
 62
     4
 10
46.108516153539433
 20
105.5865778933666
 30
0.0
 40
1.341625249269492
 50
331.97558124339309
 51
359.20443003921372
  0
LINE
  5
21D0
  8
SAPA_PROFIL
 62
     4
 10
47.292832393913727
 20
104.9562181926694
 30
0.0
 11
46.300012070885373
 21
103.236602950395
 31
0.0
  0
LINE
  5
21D1
  8
SAPA_PROFIL
 62
     4
 10
46.300012070885373
 20
103.236602950395
 30
0.0
 11
46.300012070885373
 21
102.80000041001669
 31
0.0
  0
ARC
  5
21D2
  8
SAPA_PROFIL
 62
     4
 10
46.550012070885373
 20
102.80000041001669
 30
0.0
 40
0.25
 50
180.0
 51
270.0
  0
LINE
  5
21D3
  8
SAPA_PROFIL
 62
     4
 10
46.550012070885373
 20
102.55000041001669
 30
0.0
 11
50.150024070884342
 21
102.55000041001669
 31
0.0
  0
ARC
  5
21D4
  8
SAPA_PROFIL
 62
     4
 10
50.150024070884342
 20
102.80000041001669
 30
0.0
 40
0.25
 50
269.99999999999841
 51
0.0
  0
LINE
  5
21D5
  8
SAPA_PROFIL
 62
     4
 10
50.400024070884342
 20
102.80000041001669
 30
0.0
 11
50.4000124281498
 21
103.23660233159529
 31
0.0
  0
LINE
  5
21D6
  8
SAPA_PROFIL
 62
     4
 10
50.4000124281498
 20
103.23660233159529
 30
0.0
 11
49.407191747859201
 21
104.9562181926626
 31
0.0
  0
ARC
  5
21D7
  8
SAPA_PROFIL
 62
     4
 10
50.527416852352736
 20
105.5701909428232
 30
0.0
 40
1.277445428453744
 50
180.45706900711531
 51
208.7262573819695
  0
LINE
  5
21D8
  8
SAPA_PROFIL
 62
     4
 10
49.250012070884281
 20
105.560000410017
 30
0.0
 11
49.250012070884281
 21
139.44000041001661
 31
0.0
  0
ARC
  5
21D9
  8
SAPA_PROFIL
 62
     4
 10
50.527416852352736
 20
139.4298098772104
 30
0.0
 40
1.2774454284537351
 50
151.2737426180303
 51
179.54293099288469
  0
LINE
  5
21DA
  8
SAPA_PROFIL
 62
     4
 10
49.407191747859201
 20
140.043782627371
 30
0.0
 11
50.4000124281498
 21
141.76339848843821
 31
0.0
  0
LINE
  5
21DB
  8
SAPA_PROFIL
 62
     4
 10
50.4000124281498
 20
141.76339848843821
 30
0.0
 11
50.400024070884342
 21
142.2000004100168
 31
0.0
  0
ARC
  5
21DC
  8
SAPA_PROFIL
 62
     4
 10
50.150024070884342
 20
142.2000004100168
 30
0.0
 40
0.2499999999999929
 50
0.0
 51
90.000000000001606
  0
LINE
  5
21DD
  8
SAPA_PROFIL
 62
     4
 10
50.150024070884342
 20
142.4500004100168
 30
0.0
 11
46.550012070885373
 21
142.4500004100168
 31
0.0
  0
ARC
  5
21DE
  8
SAPA_PROFIL
 62
     4
 10
46.550012070885373
 20
142.2000004100168
 30
0.0
 40
0.25
 50
90.0
 51
180.0
  0
LINE
  5
21DF
  8
SAPA_PROFIL
 62
     4
 10
46.300012070885373
 20
142.2000004100168
 30
0.0
 11
46.300012070885373
 21
141.76339786963851
 31
0.0
  0
LINE
  5
21E0
  8
SAPA_PROFIL
 62
     4
 10
46.300012070885373
 20
141.76339786963851
 30
0.0
 11
47.292832393913727
 21
140.04378262736421
 31
0.0
  0
ARC
  5
21E1
  8
SAPA_PROFIL
 62
     4
 10
46.108516153538488
 20
139.4134229266667
 30
0.0
 40
1.3416252492704219
 50
0.7955699607754158
 51
28.024418756596209
  0
LINE
  5
21E2
  8
SAPA_PROFIL
 62
     4
 10
47.450012070885009
 20
139.43205121758541
 30
0.0
 11
47.450012070885009
 21
105.5679496024477
 31
0.0
  0
ARC
  5
21E3
  8
SAPA_PROFIL
 10
44.425855923194703
 20
102.2561313690599
 30
0.0
 40
0.2999999999994784
 50
125.62006975907561
 51
179.9999999999348
  0
ARC
  5
21E4
  8
SAPA_PROFIL
 10
44.076411273135342
 20
102.74386945096821
 30
0.0
 40
0.2999999999993958
 50
305.62006975650451
 51
0.0000000001872711
  0
LINE
  5
21E5
  8
SAPA_PROFIL
 10
44.37641127313475
 20
102.7438694509692
 30
0.0
 11
44.37641127313475
 21
103.70000041000461
 31
0.0
  0
ARC
  5
21E6
  8
SAPA_PROFIL
 10
44.076411273129978
 20
103.7000004100105
 30
0.0
 40
0.300000000004772
 50
359.99999999885472
 51
62.871907506535692
  0
ARC
  5
21E7
  8
SAPA_PROFIL
 10
44.350000070885088
 20
104.233994014606
 30
0.0
 40
0.3000000000001505
 50
180.0000000000488
 51
242.871907506686
  0
LINE
  5
21E8
  8
SAPA_PROFIL
 10
44.050000070884948
 20
104.2339940146057
 30
0.0
 11
44.050000070884948
 21
106.41154236956299
 31
0.0
  0
ARC
  5
21E9
  8
SAPA_PROFIL
 10
44.350000070885763
 20
106.4115423695618
 30
0.0
 40
0.3000000000008143
 50
160.00000000001509
 51
179.9999999997774
  0
LINE
  5
21EA
  8
SAPA_PROFIL
 10
44.06809228464919
 20
106.51414841255971
 30
0.0
 11
44.587606352324308
 21
107.9415015826048
 31
0.0
  0
ARC
  5
21EB
  8
SAPA_PROFIL
 10
44.869514138564881
 20
107.8388955396004
 30
0.0
 40
0.3000000000067832
 50
69.999999999761144
 51
159.99999999912151
  0
LINE
  5
21EC
  8
SAPA_PROFIL
 10
44.972120181566083
 20
108.1208033258422
 30
0.0
 11
45.160058705716096
 21
108.05239929717121
 31
0.0
  0
ARC
  5
21ED
  8
SAPA_PROFIL
 10
45.057452662725652
 20
107.77049151093971
 30
0.0
 40
0.2999999999934207
 50
340.00000000103768
 51
70.000000001018805
  0
LINE
  5
21EE
  8
SAPA_PROFIL
 10
45.339360448957102
 20
107.6678854679494
 30
0.0
 11
44.963138291291777
 21
106.6342235850807
 31
0.0
  0
ARC
  5
21EF
  8
SAPA_PROFIL
 10
45.245046077528528
 20
106.5316175420879
 30
0.0
 40
0.2999999999992347
 50
160.00000000094781
 51
250.00000000219461
  0
LINE
  5
21F0
  8
SAPA_PROFIL
 10
45.142440034541892
 20
106.2497097558489
 30
0.0
 11
46.9526301138809
 21
105.5908544486128
 31
0.0
  0
ARC
  5
21F1
  8
SAPA_PROFIL
 10
46.850024070884487
 20
105.3089466623768
 30
0.0
 40
0.2999999999998422
 50
0.0000000000271407
 51
70.000000000252115
  0
LINE
  5
21F2
  8
SAPA_PROFIL
 10
47.150024070884342
 20
105.3089466623769
 30
0.0
 11
47.150024070884342
 21
104.8892308945574
 31
0.0
  0
ARC
  5
21F3
  8
SAPA_PROFIL
 10
46.850024070884849
 20
104.8892308945581
 30
0.0
 40
0.2999999999994856
 50
329.99999999986352
 51
359.99999999986159
  0
LINE
  5
21F4
  8
SAPA_PROFIL
 10
47.109831692019377
 20
104.73923089455771
 30
0.0
 11
46.250024070884699
 21
103.2500004100165
 31
0.0
  0
LINE
  5
21F5
  8
SAPA_PROFIL
 10
46.250024070884699
 20
103.2500004100165
 30
0.0
 11
46.250012070884281
 21
102.80000041001669
 31
0.0
  0
ARC
  5
21F6
  8
SAPA_PROFIL
 10
46.550012070884911
 20
102.8000004100172
 30
0.0
 40
0.3000000000006295
 50
180.0000000000868
 51
270.00000000008822
  0
LINE
  5
21F7
  8
SAPA_PROFIL
 10
46.550012070885373
 20
102.5000004100166
 30
0.0
 11
50.150024070884342
 21
102.5000004100166
 31
0.0
  0
ARC
  5
21F8
  8
SAPA_PROFIL
 10
50.150024070884797
 20
102.8000004100172
 30
0.0
 40
0.3000000000006366
 50
269.99999999991309
 51
359.99999999991309
  0
LINE
  5
21F9
  8
SAPA_PROFIL
 10
50.450024070885434
 20
102.80000041001669
 30
0.0
 11
50.450024070885434
 21
103.2500004100165
 31
0.0
  0
LINE
  5
21FA
  8
SAPA_PROFIL
 10
50.450024070885434
 20
103.2500004100165
 30
0.0
 11
49.590199333315127
 21
104.7392605410909
 31
0.0
  0
ARC
  5
21FB
  8
SAPA_PROFIL
 10
49.850006954451551
 20
104.8892605410885
 30
0.0
 40
0.2999999999997129
 50
180.0036468669287
 51
209.99999999948761
  0
LINE
  5
21FC
  8
SAPA_PROFIL
 10
49.55000695505953
 20
104.8892414461379
 30
0.0
 11
49.549999905267782
 21
105.00000041001471
 31
0.0
  0
LINE
  5
21FD
  8
SAPA_PROFIL
 10
49.549999905267782
 20
105.00000041001471
 30
0.0
 11
51.625855923184297
 21
105.00000041001471
 31
0.0
  0
ARC
  5
21FE
  8
SAPA_PROFIL
 10
51.625855923184297
 20
104.50000041001471
 30
0.0
 40
0.5
 50
0.0
 51
90.0
  0
LINE
  5
21FF
  8
SAPA_PROFIL
 10
52.125855923184297
 20
104.50000041001471
 30
0.0
 11
52.125855923184297
 21
99.250000410349458
 31
0.0
  0
ARC
  5
2200
  8
SAPA_PROFIL
 10
51.625855923184297
 20
99.250000410349458
 30
0.0
 40
0.5
 50
270.0
 51
0.0
  0
LINE
  5
2201
  8
SAPA_PROFIL
 10
51.625855923184297
 20
98.750000410349458
 30
0.0
 11
51.125855919600887
 21
98.750000410349458
 31
0.0
  0
ARC
  5
2202
  8
SAPA_PROFIL
 10
51.125855919600887
 20
99.250000410349458
 30
0.0
 40
0.5
 50
180.0
 51
270.0
  0
LINE
  5
2203
  8
SAPA_PROFIL
 10
50.625855919600902
 20
99.250000410349458
 30
0.0
 11
50.625855919595431
 21
100.2500004107569
 31
0.0
  0
LINE
  5
2204
  8
SAPA_PROFIL
 10
50.625855919595431
 20
100.2500004107569
 30
0.0
 11
47.425855919141782
 21
100.250000410761
 31
0.0
  0
LINE
  5
2205
  8
SAPA_PROFIL
 10
47.425855919141782
 20
100.250000410761
 30
0.0
 11
47.425855919149051
 21
95.750000409855133
 31
0.0
  0
LINE
  5
2206
  8
SAPA_PROFIL
 10
47.425855919149051
 20
95.750000409855133
 30
0.0
 11
66.92585592319449
 21
95.750000409833774
 31
0.0
  0
ARC
  5
2207
  8
SAPA_PROFIL
 10
66.92585592319476
 20
95.550000409832776
 30
0.0
 40
0.2000000000009834
 50
344.3980832556245
 51
90.000000000077364
  0
ARC
  5
2208
  8
SAPA_PROFIL
 10
66.155333067236384
 20
95.765162043134538
 30
0.0
 40
1.000000000000556
 50
276.24358845850611
 51
344.39808325546488
  0
ARC
  5
2209
  8
SAPA_PROFIL
 10
52.125855923008089
 20
224.0000004144691
 30
0.0
 40
130.00000000411961
 50
270.00000000008731
 51
276.24358845858899
  0
LINE
  5
220A
  8
SAPA_PROFIL
 10
52.125855923206132
 20
94.000000410349458
 30
0.0
 11
47.125855923286167
 21
94.000000410211214
 31
0.0
  0
ARC
  5
220B
  8
SAPA_PROFIL
 10
47.125855923195203
 20
97.0000004102112
 30
0.0
 40
2.9999999999999849
 50
179.99999999999969
 51
270.00000000173719
  0
LINE
  5
220C
  8
SAPA_PROFIL
 10
44.125855923195218
 20
97.000000410211214
 30
0.0
 11
44.125855923195218
 21
102.2561313690603
 31
0.0
  0
ARC
  5
220D
  8
SAPA_PROFIL
 10
44.425855923194703
 20
142.74386945097319
 30
0.0
 40
0.2999999999994784
 50
180.00000000006511
 51
234.3799302409243
  0
ARC
  5
220E
  8
SAPA_PROFIL
 10
44.076411273135342
 20
142.25613136906489
 30
0.0
 40
0.2999999999994074
 50
359.99999999981537
 51
54.379930243497078
  0
LINE
  5
220F
  8
SAPA_PROFIL
 10
44.37641127313475
 20
142.25613136906389
 30
0.0
 11
44.37641127313475
 21
141.30000041002859
 31
0.0
  0
ARC
  5
2210
  8
SAPA_PROFIL
 10
44.07641127313034
 20
141.30000041002279
 30
0.0
 40
0.3000000000044025
 50
297.12809249342132
 51
0.0000000011019138
  0
ARC
  5
2211
  8
SAPA_PROFIL
 10
44.350000070885088
 20
140.76600680542759
 30
0.0
 40
0.3000000000001505
 50
117.1280924933139
 51
179.99999999995109
  0
LINE
  5
2212
  8
SAPA_PROFIL
 10
44.050000070884948
 20
140.76600680542791
 30
0.0
 11
44.050000070884948
 21
138.5884584504706
 31
0.0
  0
ARC
  5
2213
  8
SAPA_PROFIL
 10
44.350000070884469
 20
138.58845845047199
 30
0.0
 40
0.2999999999995282
 50
180.000000000266
 51
200.00000000002811
  0
LINE
  5
2214
  8
SAPA_PROFIL
 10
44.06809228464919
 20
138.48585240747431
 30
0.0
 11
44.587606352324308
 21
137.0584992374288
 31
0.0
  0
ARC
  5
2215
  8
SAPA_PROFIL
 10
44.869514138564881
 20
137.16110528043311
 30
0.0
 40
0.3000000000067881
 50
200.00000000088099
 51
290.00000000023789
  0
LINE
  5
2216
  8
SAPA_PROFIL
 10
44.972120181566083
 20
136.8791974941914
 30
0.0
 11
45.160058705716096
 21
136.94760152286241
 31
0.0
  0
ARC
  5
2217
  8
SAPA_PROFIL
 10
45.057452662725879
 20
137.2295093090936
 30
0.0
 40
0.2999999999931293
 50
289.99999999895522
 51
19.999999998936339
  0
LINE
  5
2218
  8
SAPA_PROFIL
 10
45.339360448957102
 20
137.33211535208369
 30
0.0
 11
44.963138291291777
 21
138.36577723495341
 31
0.0
  0
ARC
  5
2219
  8
SAPA_PROFIL
 10
45.245046077528301
 20
138.46838327794589
 30
0.0
 40
0.2999999999989481
 50
109.99999999778041
 51
199.99999999902869
  0
LINE
  5
221A
  8
SAPA_PROFIL
 10
45.142440034541892
 20
138.75029106418469
 30
0.0
 11
46.9526301138809
 21
139.40914637142029
 31
0.0
  0
ARC
  5
221B
  8
SAPA_PROFIL
 10
46.850024070884167
 20
139.69105415765659
 30
0.0
 40
0.3000000000001676
 50
289.99999999979173
 51
0.0000000000162844
  0
LINE
  5
221C
  8
SAPA_PROFIL
 10
47.150024070884342
 20
139.69105415765671
 30
0.0
 11
47.150024070884342
 21
140.11076992547621
 31
0.0
  0
ARC
  5
221D
  8
SAPA_PROFIL
 10
46.850024070884849
 20
140.11076992547549
 30
0.0
 40
0.2999999999994856
 50
0.0000000001411318
 51
30.000000000138861
  0
LINE
  5
221E
  8
SAPA_PROFIL
 10
47.109831692019377
 20
140.26076992547581
 30
0.0
 11
46.250024070884699
 21
141.7500004100165
 31
0.0
  0
LINE
  5
221F
  8
SAPA_PROFIL
 10
46.250024070884699
 20
141.7500004100165
 30
0.0
 11
46.250012070884281
 21
142.2000004100168
 31
0.0
  0
ARC
  5
2220
  8
SAPA_PROFIL
 10
46.550012070884677
 20
142.20000041001609
 30
0.0
 40
0.3000000000004022
 50
89.999999999868379
 51
179.99999999986969
  0
LINE
  5
2221
  8
SAPA_PROFIL
 10
46.550012070885373
 20
142.50000041001661
 30
0.0
 11
50.150024070884342
 21
142.50000041001661
 31
0.0
  0
ARC
  5
2222
  8
SAPA_PROFIL
 10
50.150024070885017
 20
142.20000041001609
 30
0.0
 40
0.3000000000004093
 50
0.0000000001302755
 51
90.000000000130271
  0
LINE
  5
2223
  8
SAPA_PROFIL
 10
50.450024070885434
 20
142.2000004100168
 30
0.0
 11
50.450024070885434
 21
141.7500004100165
 31
0.0
  0
LINE
  5
2224
  8
SAPA_PROFIL
 10
50.450024070885434
 20
141.7500004100165
 30
0.0
 11
49.590199333315127
 21
140.26074027894259
 31
0.0
  0
ARC
  5
2225
  8
SAPA_PROFIL
 10
49.850006954451551
 20
140.11074027894509
 30
0.0
 40
0.2999999999997129
 50
150.00000000051239
 51
179.99635313307121
  0
LINE
  5
2226
  8
SAPA_PROFIL
 10
49.55000695505953
 20
140.11075937389569
 30
0.0
 11
49.549999905267782
 21
140.0000004100184
 31
0.0
  0
LINE
  5
2227
  8
SAPA_PROFIL
 10
49.549999905267782
 20
140.0000004100184
 30
0.0
 11
51.625855923184297
 21
140.0000004100184
 31
0.0
  0
ARC
  5
2228
  8
SAPA_PROFIL
 10
51.625855923184297
 20
140.5000004100184
 30
0.0
 40
0.5
 50
270.0
 51
0.0
  0
LINE
  5
2229
  8
SAPA_PROFIL
 10
52.125855923184297
 20
140.5000004100184
 30
0.0
 11
52.125855923184297
 21
145.75000040968371
 31
0.0
  0
ARC
  5
222A
  8
SAPA_PROFIL
 10
51.625855923184297
 20
145.75000040968371
 30
0.0
 40
0.5
 50
0.0
 51
90.0
  0
LINE
  5
222B
  8
SAPA_PROFIL
 10
51.625855923184297
 20
146.25000040968371
 30
0.0
 11
51.125855919600887
 21
146.25000040968371
 31
0.0
  0
ARC
  5
222C
  8
SAPA_PROFIL
 10
51.125855919600887
 20
145.75000040968371
 30
0.0
 40
0.5
 50
90.0
 51
180.0
  0
LINE
  5
222D
  8
SAPA_PROFIL
 10
50.625855919600902
 20
145.75000040968371
 30
0.0
 11
50.625855919595431
 21
144.75000040927671
 31
0.0
  0
LINE
  5
222E
  8
SAPA_PROFIL
 10
50.625855919595431
 20
144.75000040927671
 30
0.0
 11
47.425855919141782
 21
144.75000040927259
 31
0.0
  0
LINE
  5
222F
  8
SAPA_PROFIL
 10
47.425855919141782
 20
144.75000040927259
 30
0.0
 11
47.425855919149051
 21
149.2500004101785
 31
0.0
  0
LINE
  5
2230
  8
SAPA_PROFIL
 10
47.425855919149051
 20
149.2500004101785
 30
0.0
 11
66.92585592319449
 21
149.25000041019979
 31
0.0
  0
ARC
  5
2231
  8
SAPA_PROFIL
 10
66.92585592319476
 20
149.4500004102008
 30
0.0
 40
0.2000000000009834
 50
269.99999999992269
 51
15.60191674437546
  0
ARC
  5
2232
  8
SAPA_PROFIL
 10
66.155333067236384
 20
149.23483877689901
 30
0.0
 40
1.00000000000056
 50
15.601916744535931
 51
83.756411541494046
  0
ARC
  5
2233
  8
SAPA_PROFIL
 10
52.125855923008089
 20
21.000000405564521
 30
0.0
 40
130.00000000411961
 50
83.756411541411026
 51
89.999999999912717
  0
LINE
  5
2234
  8
SAPA_PROFIL
 10
52.125855923206132
 20
151.00000040968411
 30
0.0
 11
47.125855923286167
 21
151.00000040982189
 31
0.0
  0
ARC
  5
2235
  8
SAPA_PROFIL
 10
47.125855923195203
 20
148.00000040982189
 30
0.0
 40
3.0
 50
89.999999998262723
 51
180.0
  0
LINE
  5
2236
  8
SAPA_PROFIL
 10
44.125855923195218
 20
148.00000040982189
 30
0.0
 11
44.125855923195218
 21
142.7438694509728
 31
0.0
  0
LINE
  5
2237
  8
SAPA_GLAS
 10
-31.94999992916371
 20
140.5000001377
 30
0.0
 11
0.0500000708362904
 21
140.5000001377
 31
0.0
  0
LINE
  5
2238
  8
SAPA_GLAS
 10
0.0500000708362904
 20
140.5000001377
 30
0.0
 11
0.0500000708362904
 21
148.5000001377
 31
0.0
  0
LINE
  5
2239
  8
SAPA_GLAS
 10
0.0500000708362904
 20
148.5000001377
 30
0.0
 11
-31.94999992916371
 21
148.5000001377
 31
0.0
  0
LINE
  5
223A
  8
SAPA_GLAS
 10
-9.9499999291637096
 20
140.5000001377
 30
0.0
 11
-9.9499999291637096
 21
125.5000001377
 31
0.0
  0
LINE
  5
223B
  8
SAPA_GLAS
 10
-9.9499999291637096
 20
125.5000001377
 30
0.0
 11
0.0500000708362904
 21
125.5000001377
 31
0.0
  0
LINE
  5
223C
  8
SAPA_GLAS
 10
0.0500000708362904
 20
125.5000001377
 30
0.0
 11
0.0500000708362904
 21
140.5000001377
 31
0.0
  0
LINE
  5
223D
  8
SAPA_GLAS
 10
0.0500000708362904
 20
140.5000001377
 30
0.0
 11
-9.9499999291637096
 21
140.5000001377
 31
0.0
  0
LINE
  5
223E
  8
SAPA_GLAS
 10
-31.94999992916371
 20
119.5000001377
 30
0.0
 11
0.0500000708362904
 21
119.5000001377
 31
0.0
  0
LINE
  5
223F
  8
SAPA_GLAS
 10
0.0500000708362904
 20
119.5000001377
 30
0.0
 11
0.0500000708362904
 21
125.5000001377
 31
0.0
  0
LINE
  5
2240
  8
SAPA_GLAS
 10
0.0500000708362904
 20
125.5000001377
 30
0.0
 11
-31.94999992916371
 21
125.5000001377
 31
0.0
  0
LINE
  5
2241
  8
SAPA_GLAS
 10
-9.9499999291637096
 20
119.5000001375392
 30
0.0
 11
-9.9499999291637096
 21
104.5000001375392
 31
0.0
  0
LINE
  5
2242
  8
SAPA_GLAS
 10
-9.9499999291637096
 20
104.5000001375392
 30
0.0
 11
0.0500000708362904
 21
104.5000001375392
 31
0.0
  0
LINE
  5
2243
  8
SAPA_GLAS
 10
0.0500000708362904
 20
104.5000001375392
 30
0.0
 11
0.0500000708362904
 21
119.5000001375392
 31
0.0
  0
LINE
  5
2244
  8
SAPA_GLAS
 10
0.0500000708362904
 20
119.5000001375392
 30
0.0
 11
-9.9499999291637096
 21
119.5000001375392
 31
0.0
  0
LINE
  5
2245
  8
SAPA_GLAS
 10
-31.94999992916371
 20
96.500000137539033
 30
0.0
 11
0.0500000708362904
 21
96.500000137539033
 31
0.0
  0
LINE
  5
2246
  8
SAPA_GLAS
 10
0.0500000708362904
 20
96.500000137539033
 30
0.0
 11
0.0500000708362904
 21
104.500000137539
 31
0.0
  0
LINE
  5
2247
  8
SAPA_GLAS
 10
0.0500000708362904
 20
104.500000137539
 30
0.0
 11
-31.94999992916371
 21
104.500000137539
 31
0.0
  0
LINE
  5
2248
  8
SAPA_GLAS
 10
-12.61325456793997
 20
95.750000137025523
 30
0.0
 11
-11.86325456758747
 21
96.500000137378024
 31
0.0
1001
ACAD
1010
0.0
1020
0.0
1030
0.0
  0
LINE
  5
2249
  8
SAPA_GLAS
 10
-11.49072255280511
 20
95.750000137026746
 30
0.0
 11
-10.740722552453819
 21
96.500000137378038
 31
0.0
1001
ACAD
1010
0.0
1020
0.0
1030
0.0
  0
LINE
  5
224A
  8
SAPA_GLAS
 10
-10.36819053767025
 20
95.750000137027953
 30
0.0
 11
-9.6181905373201797
 21
96.500000137378038
 31
0.0
1001
ACAD
1010
0.0
1020
0.0
1030
0.0
  0
LINE
  5
224B
  8
SAPA_GLAS
 10
-9.2456585225353969
 20
95.750000137029176
 30
0.0
 11
-8.4956585221865382
 21
96.500000137378024
 31
0.0
1001
ACAD
1010
0.0
1020
0.0
1030
0.0
  0
LINE
  5
224C
  8
SAPA_GLAS
 10
-8.1231265074005332
 20
95.750000137030383
 30
0.0
 11
-7.3731265070528931
 21
96.500000137378038
 31
0.0
1001
ACAD
1010
0.0
1020
0.0
1030
0.0
  0
LINE
  5
224D
  8
SAPA_GLAS
 10
-7.0005944922656731
 20
95.75000013703162
 30
0.0
 11
-6.2505944919192507
 21
96.500000137378038
 31
0.0
1001
ACAD
1010
0.0
1020
0.0
1030
0.0
  0
LINE
  5
224E
  8
SAPA_GLAS
 10
-5.8780624771308112
 20
95.750000137032828
 30
0.0
 11
-5.1280624767856047
 21
96.500000137378038
 31
0.0
1001
ACAD
1010
0.0
1020
0.0
1030
0.0
  0
LINE
  5
224F
  8
SAPA_GLAS
 10
-4.7555304619959493
 20
95.750000137034036
 30
0.0
 11
-4.0055304616519587
 21
96.500000137378024
 31
0.0
1001
ACAD
1010
0.0
1020
0.0
1030
0.0
  0
LINE
  5
2250
  8
SAPA_GLAS
 10
-3.6329984468610919
 20
95.750000137035258
 30
0.0
 11
-2.8829984465183141
 21
96.500000137378038
 31
0.0
1001
ACAD
1010
0.0
1020
0.0
1030
0.0
  0
LINE
  5
2251
  8
SAPA_GLAS
 10
-2.51046643172623
 20
95.750000137036466
 30
0.0
 11
-1.760466431384673
 21
96.500000137378024
 31
0.0
1001
ACAD
1010
0.0
1020
0.0
1030
0.0
  0
LINE
  5
2252
  8
SAPA_GLAS
 10
-1.3879344165913741
 20
95.750000137037674
 30
0.0
 11
-0.6379344162510272
 21
96.500000137378024
 31
0.0
1001
ACAD
1010
0.0
1020
0.0
1030
0.0
  0
LINE
  5
2253
  8
SAPA_GLAS
 10
-0.2654024014565075
 20
95.750000137038896
 30
0.0
 11
0.0500000708359023
 21
96.065402609331315
 31
0.0
1001
ACAD
1010
0.0
1020
0.0
1030
0.0
  0
LINE
  5
2254
  8
SAPA_GLAS
 10
-11.66924476139601
 20
95.750000137026547
 30
0.0
 11
-12.4192447617475
 21
96.500000137378038
 31
0.0
1001
ACAD
1010
0.0
1020
0.0
1030
0.0
  0
LINE
  5
2255
  8
SAPA_GLAS
 10
-10.54671274626358
 20
95.750000137027754
 30
0.0
 11
-11.296712746613849
 21
96.500000137378038
 31
0.0
1001
ACAD
1010
0.0
1020
0.0
1030
0.0
  0
LINE
  5
2256
  8
SAPA_GLAS
 10
-9.4241807311311572
 20
95.750000137028991
 30
0.0
 11
-10.174180731480201
 21
96.500000137378038
 31
0.0
1001
ACAD
1010
0.0
1020
0.0
1030
0.0
  0
LINE
  5
2257
  8
SAPA_GLAS
 10
-8.3016487159987165
 20
95.750000137030185
 30
0.0
 11
-9.0516487163465555
 21
96.500000137378038
 31
0.0
1001
ACAD
1010
0.0
1020
0.0
1030
0.0
  0
LINE
  5
2258
  8
SAPA_GLAS
 10
-7.1791167008663086
 20
95.750000137031407
 30
0.0
 11
-7.9291167012129051
 21
96.500000137378024
 31
0.0
1001
ACAD
1010
0.0
1020
0.0
1030
0.0
  0
LINE
  5
2259
  8
SAPA_GLAS
 10
-6.0565846857338661
 20
95.750000137032643
 30
0.0
 11
-6.806584686079268
 21
96.500000137378038
 31
0.0
1001
ACAD
1010
0.0
1020
0.0
1030
0.0
  0
LINE
  5
225A
  8
SAPA_GLAS
 10
-4.9340526706014449
 20
95.750000137033865
 30
0.0
 11
-5.6840526709456247
 21
96.500000137378038
 31
0.0
1001
ACAD
1010
0.0
1020
0.0
1030
0.0
  0
LINE
  5
225B
  8
SAPA_GLAS
 10
-3.8115206554690171
 20
95.750000137035059
 30
0.0
 11
-4.5615206558119823
 21
96.500000137378038
 31
0.0
1001
ACAD
1010
0.0
1020
0.0
1030
0.0
  0
LINE
  5
225C
  8
SAPA_GLAS
 10
-2.6889886403365888
 20
95.750000137036267
 30
0.0
 11
-3.4389886406783461
 21
96.500000137378038
 31
0.0
1001
ACAD
1010
0.0
1020
0.0
1030
0.0
  0
LINE
  5
225D
  8
SAPA_GLAS
 10
-1.5664566252041749
 20
95.750000137037517
 30
0.0
 11
-2.3164566255447019
 21
96.500000137378038
 31
0.0
1001
ACAD
1010
0.0
1020
0.0
1030
0.0
  0
LINE
  5
225E
  8
SAPA_GLAS
 10
-0.4439246100717398
 20
95.750000137038711
 30
0.0
 11
-1.1939246104110519
 21
96.500000137378038
 31
0.0
1001
ACAD
1010
0.0
1020
0.0
1030
0.0
  0
LINE
  5
225F
  8
SAPA_GLAS
 10
0.0500000708355231
 20
96.378607471265084
 30
0.0
 11
-0.0713925952774162
 21
96.500000137378038
 31
0.0
1001
ACAD
1010
0.0
1020
0.0
1030
0.0
  0
LINE
  5
2260
  8
SAPA_GLAS
 10
-12.62225927853039
 20
148.5000001377164
 30
0.0
 11
-11.87225927817868
 21
149.25000013806809
 31
0.0
1001
ACAD
1010
0.0
1020
0.0
1030
0.0
  0
LINE
  5
2261
  8
SAPA_GLAS
 10
-11.49972726339675
 20
148.5000001377164
 30
0.0
 11
-10.74972726304626
 21
149.25000013806681
 31
0.0
1001
ACAD
1010
0.0
1020
0.0
1030
0.0
  0
LINE
  5
2262
  8
SAPA_GLAS
 10
-10.377195248263099
 20
148.5000001377164
 30
0.0
 11
-9.6271952479138321
 21
149.25000013806559
 31
0.0
1001
ACAD
1010
0.0
1020
0.0
1030
0.0
  0
LINE
  5
2263
  8
SAPA_GLAS
 10
-9.2546632331294632
 20
148.5000001377164
 30
0.0
 11
-8.5046632327814091
 21
149.25000013806439
 31
0.0
1001
ACAD
1010
0.0
1020
0.0
1030
0.0
  0
LINE
  5
2264
  8
SAPA_GLAS
 10
-8.1321312179958198
 20
148.5000001377164
 30
0.0
 11
-7.3821312176489862
 21
149.2500001380632
 31
0.0
1001
ACAD
1010
0.0
1020
0.0
1030
0.0
  0
LINE
  5
2265
  8
SAPA_GLAS
 10
-7.0095992028621721
 20
148.5000001377164
 30
0.0
 11
-6.2595992025165499
 21
149.25000013806201
 31
0.0
1001
ACAD
1010
0.0
1020
0.0
1030
0.0
  0
LINE
  5
2266
  8
SAPA_GLAS
 10
-5.8870671877285359
 20
148.5000001377164
 30
0.0
 11
-5.1370671873841154
 21
149.25000013806081
 31
0.0
1001
ACAD
1010
0.0
1020
0.0
1030
0.0
  0
LINE
  5
2267
  8
SAPA_GLAS
 10
-4.764535172594889
 20
148.5000001377164
 30
0.0
 11
-4.0145351722516942
 21
149.25000013805951
 31
0.0
1001
ACAD
1010
0.0
1020
0.0
1030
0.0
  0
LINE
  5
2268
  8
SAPA_GLAS
 10
-3.6420031574612461
 20
148.5000001377164
 30
0.0
 11
-2.892003157119265
 21
149.25000013805831
 31
0.0
1001
ACAD
1010
0.0
1020
0.0
1030
0.0
  0
LINE
  5
2269
  8
SAPA_GLAS
 10
-2.5194711423275988
 20
148.5000001377164
 30
0.0
 11
-1.769471141986841
 21
149.25000013805709
 31
0.0
1001
ACAD
1010
0.0
1020
0.0
1030
0.0
  0
LINE
  5
226A
  8
SAPA_GLAS
 10
-1.396939127193952
 20
148.5000001377164
 30
0.0
 11
-0.6469391268544058
 21
149.2500001380559
 31
0.0
1001
ACAD
1010
0.0
1020
0.0
1030
0.0
  0
LINE
  5
226B
  8
SAPA_GLAS
 10
-0.274407112060306
 20
148.5000001377164
 30
0.0
 11
0.0500000708357753
 21
148.82440732061241
 31
0.0
1001
ACAD
1010
0.0
1020
0.0
1030
0.0
  0
LINE
  5
226C
  8
SAPA_GLAS
 10
-11.66024005080453
 20
148.5000001377164
 30
0.0
 11
-12.410240051156819
 21
149.2500001380686
 31
0.0
1001
ACAD
1010
0.0
1020
0.0
1030
0.0
  0
LINE
  5
226D
  8
SAPA_GLAS
 10
-10.537708035670891
 20
148.5000001377164
 30
0.0
 11
-11.287708036021961
 21
149.25000013806741
 31
0.0
1001
ACAD
1010
0.0
1020
0.0
1030
0.0
  0
LINE
  5
226E
  8
SAPA_GLAS
 10
-9.415176020537249
 20
148.5000001377164
 30
0.0
 11
-10.16517602088709
 21
149.25000013806621
 31
0.0
1001
ACAD
1010
0.0
1020
0.0
1030
0.0
  0
LINE
  5
226F
  8
SAPA_GLAS
 10
-8.2926440054036092
 20
148.50000013771631
 30
0.0
 11
-9.0426440057522512
 21
149.25000013806499
 31
0.0
1001
ACAD
1010
0.0
1020
0.0
1030
0.0
  0
LINE
  5
2270
  8
SAPA_GLAS
 10
-7.1701119902699624
 20
148.5000001377164
 30
0.0
 11
-7.9201119906173894
 21
149.2500001380638
 31
0.0
1001
ACAD
1010
0.0
1020
0.0
1030
0.0
  0
LINE
  5
2271
  8
SAPA_GLAS
 10
-6.0475799751363217
 20
148.5000001377164
 30
0.0
 11
-6.7975799754825337
 21
149.25000013806249
 31
0.0
1001
ACAD
1010
0.0
1020
0.0
1030
0.0
  0
LINE
  5
2272
  8
SAPA_GLAS
 10
-4.9250479600026749
 20
148.5000001377164
 30
0.0
 11
-5.675047960347662
 21
149.2500001380613
 31
0.0
1001
ACAD
1010
0.0
1020
0.0
1030
0.0
  0
LINE
  5
2273
  8
SAPA_GLAS
 10
-3.802515944869032
 20
148.5000001377164
 30
0.0
 11
-4.5525159452128028
 21
149.2500001380601
 31
0.0
1001
ACAD
1010
0.0
1020
0.0
1030
0.0
  0
LINE
  5
2274
  8
SAPA_GLAS
 10
-2.6799839297353891
 20
148.5000001377164
 30
0.0
 11
-3.429983930077952
 21
149.25000013805891
 31
0.0
1001
ACAD
1010
0.0
1020
0.0
1030
0.0
  0
LINE
  5
2275
  8
SAPA_GLAS
 10
-1.5574519146017449
 20
148.5000001377164
 30
0.0
 11
-2.3074519149430901
 21
149.25000013805769
 31
0.0
1001
ACAD
1010
0.0
1020
0.0
1030
0.0
  0
LINE
  5
2276
  8
SAPA_GLAS
 10
-0.4349198994681025
 20
148.5000001377164
 30
0.0
 11
-1.1849198998082351
 21
149.25000013805649
 31
0.0
1001
ACAD
1010
0.0
1020
0.0
1030
0.0
  0
LINE
  5
2277
  8
SAPA_GLAS
 10
0.0500000708361519
 20
149.13761218254569
 30
0.0
 11
-0.0623878846733668
 21
149.25000013805521
 31
0.0
1001
ACAD
1010
0.0
1020
0.0
1030
0.0
  0
ARC
  5
2278
  8
SAPA_PROFIL
 62
     4
 10
8.0673398404798018
 20
139.41342265419729
 30
0.0
 40
1.34162524926949
 50
151.97558124339349
 51
179.20443003921429
  0
LINE
  5
2279
  8
SAPA_PROFIL
 62
     4
 10
6.8830236001055018
 20
140.0437823548946
 30
0.0
 11
7.8758439231338571
 21
141.7633975971689
 31
0.0
  0
LINE
  5
227A
  8
SAPA_PROFIL
 62
     4
 10
7.8758439231338571
 20
141.7633975971689
 30
0.0
 11
7.8758439231338571
 21
142.20000013754719
 31
0.0
  0
ARC
  5
227B
  8
SAPA_PROFIL
 62
     4
 10
7.6258439231338571
 20
142.20000013754719
 30
0.0
 40
0.25
 50
0.0
 51
90.0
  0
LINE
  5
227C
  8
SAPA_PROFIL
 62
     4
 10
7.6258439231338571
 20
142.45000013754719
 30
0.0
 11
4.0258319231348869
 21
142.45000013754719
 31
0.0
  0
ARC
  5
227D
  8
SAPA_PROFIL
 62
     4
 10
4.0258319231348834
 20
142.20000013754719
 30
0.0
 40
0.25
 50
89.999999999998977
 51
180.0
  0
LINE
  5
227E
  8
SAPA_PROFIL
 62
     4
 10
3.7758319231348869
 20
142.20000013754719
 30
0.0
 11
3.775843565869422
 21
141.76339821596861
 31
0.0
  0
LINE
  5
227F
  8
SAPA_PROFIL
 62
     4
 10
3.775843565869422
 20
141.76339821596861
 30
0.0
 11
4.7686642461600277
 21
140.0437823549014
 31
0.0
  0
ARC
  5
2280
  8
SAPA_PROFIL
 62
     4
 10
3.648439141666489
 20
139.42980960474071
 30
0.0
 40
1.2774454284537411
 50
0.4570690071153063
 51
28.726257381969621
  0
LINE
  5
2281
  8
SAPA_PROFIL
 62
     4
 10
4.9258439231349476
 20
139.440000137547
 30
0.0
 11
4.9258439231349476
 21
105.56000013754741
 31
0.0
  0
ARC
  5
2282
  8
SAPA_PROFIL
 62
     4
 10
3.648439141666493
 20
105.5701906703536
 30
0.0
 40
1.277445428453734
 50
331.27374261803089
 51
359.54293099288532
  0
LINE
  5
2283
  8
SAPA_PROFIL
 62
     4
 10
4.7686642461600277
 20
104.956217920193
 30
0.0
 11
3.775843565869422
 21
103.2366020591257
 31
0.0
  0
LINE
  5
2284
  8
SAPA_PROFIL
 62
     4
 10
3.775843565869422
 20
103.2366020591257
 30
0.0
 11
3.7758319231348869
 21
102.8000001375471
 31
0.0
  0
ARC
  5
2285
  8
SAPA_PROFIL
 62
     4
 10
4.0258319231348842
 20
102.8000001375471
 30
0.0
 40
0.2499999999999964
 50
180.0
 51
270.0000000000008
  0
LINE
  5
2286
  8
SAPA_PROFIL
 62
     4
 10
4.0258319231348869
 20
102.5500001375471
 30
0.0
 11
7.6258439231338571
 21
102.5500001375471
 31
0.0
  0
ARC
  5
2287
  8
SAPA_PROFIL
 62
     4
 10
7.6258439231338571
 20
102.8000001375471
 30
0.0
 40
0.25
 50
270.0
 51
0.0
  0
LINE
  5
2288
  8
SAPA_PROFIL
 62
     4
 10
7.8758439231338571
 20
102.8000001375471
 30
0.0
 11
7.8758439231338571
 21
103.2366026779254
 31
0.0
  0
LINE
  5
2289
  8
SAPA_PROFIL
 62
     4
 10
7.8758439231338571
 20
103.2366026779254
 30
0.0
 11
6.8830236001055018
 21
104.9562179201998
 31
0.0
  0
ARC
  5
228A
  8
SAPA_PROFIL
 62
     4
 10
8.0673398404807397
 20
105.5865776208973
 30
0.0
 40
1.341625249270427
 50
180.79556996077599
 51
208.02441875659679
  0
LINE
  5
228B
  8
SAPA_PROFIL
 62
     4
 10
6.72584392313422
 20
105.5679493299785
 30
0.0
 11
6.72584392313422
 21
139.43205094511629
 31
0.0
  0
ARC
  5
228C
  8
SAPA_PROFIL
 10
9.7500000708245356
 20
142.74386917850401
 30
0.0
 40
0.2999999999994767
 50
305.62006975907542
 51
359.99999999993491
  0
ARC
  5
228D
  8
SAPA_PROFIL
 10
10.099444720883881
 20
142.25613109659571
 30
0.0
 40
0.2999999999994064
 50
125.6200697565026
 51
180.00000000018451
  0
LINE
  5
228E
  8
SAPA_PROFIL
 10
9.7994447208844804
 20
142.2561310965948
 30
0.0
 11
9.7994447208844804
 21
141.30000013755941
 31
0.0
  0
ARC
  5
228F
  8
SAPA_PROFIL
 10
10.099444720889251
 20
141.30000013755341
 30
0.0
 40
0.300000000004772
 50
179.99999999885461
 51
242.87190750653571
  0
ARC
  5
2290
  8
SAPA_PROFIL
 10
9.8258559231341387
 20
140.76600653295799
 30
0.0
 40
0.3000000000001489
 50
0.0000000000488533
 51
62.871907506686632
  0
LINE
  5
2291
  8
SAPA_PROFIL
 10
10.12585592313428
 20
140.76600653295819
 30
0.0
 11
10.12585592313428
 21
138.58845817800099
 31
0.0
  0
ARC
  5
2292
  8
SAPA_PROFIL
 10
9.8258559231334655
 20
138.58845817800221
 30
0.0
 40
0.3000000000008161
 50
340.00000000001518
 51
359.99999999977751
  0
LINE
  5
2293
  8
SAPA_PROFIL
 10
10.10776370937003
 20
138.48585213500431
 30
0.0
 11
9.5882496416949152
 21
137.0584989649592
 31
0.0
  0
ARC
  5
2294
  8
SAPA_PROFIL
 10
9.3063418554543418
 20
137.1611050079635
 30
0.0
 40
0.3000000000067881
 50
249.99999999976211
 51
339.99999999911898
  0
LINE
  5
2295
  8
SAPA_PROFIL
 10
9.2037358124531465
 20
136.8791972217218
 30
0.0
 11
9.0157972883031334
 21
136.94760125039281
 31
0.0
  0
ARC
  5
2296
  8
SAPA_PROFIL
 10
9.1184033312935693
 20
137.22950903662419
 30
0.0
 40
0.2999999999934201
 50
160.00000000103759
 51
250.00000000101909
  0
LINE
  5
2297
  8
SAPA_PROFIL
 10
8.8364955450621192
 20
137.3321150796146
 30
0.0
 11
9.2127177027274456
 21
138.3657769624833
 31
0.0
  0
ARC
  5
2298
  8
SAPA_PROFIL
 10
8.9308099164906931
 20
138.46838300547611
 30
0.0
 40
0.2999999999992395
 50
340.00000000094531
 51
70.000000002193602
  0
LINE
  5
2299
  8
SAPA_PROFIL
 10
9.0334159594773382
 20
138.75029079171509
 30
0.0
 11
7.2232258801383287
 21
139.40914609895111
 31
0.0
  0
ARC
  5
229A
  8
SAPA_PROFIL
 10
7.3258319231347349
 20
139.69105388518719
 30
0.0
 40
0.2999999999998422
 50
180.00000000002709
 51
250.0000000002521
  0
LINE
  5
229B
  8
SAPA_PROFIL
 10
7.0258319231348869
 20
139.6910538851871
 30
0.0
 11
7.0258319231348869
 21
140.1107696530066
 31
0.0
  0
ARC
  5
229C
  8
SAPA_PROFIL
 10
7.325831923134376
 20
140.11076965300589
 30
0.0
 40
0.2999999999994882
 50
149.99999999986139
 51
179.9999999998588
  0
LINE
  5
229D
  8
SAPA_PROFIL
 10
7.0660243019998461
 20
140.26076965300621
 30
0.0
 11
7.925831923134524
 21
141.7500001375474
 31
0.0
  0
LINE
  5
229E
  8
SAPA_PROFIL
 10
7.925831923134524
 20
141.7500001375474
 30
0.0
 11
7.9258439231349476
 21
142.20000013754719
 31
0.0
  0
ARC
  5
229F
  8
SAPA_PROFIL
 10
7.6258439231343171
 20
142.20000013754679
 30
0.0
 40
0.3000000000006313
 50
0.0000000000868503
 51
90.000000000087852
  0
LINE
  5
22A0
  8
SAPA_PROFIL
 10
7.6258439231338571
 20
142.5000001375474
 30
0.0
 11
4.0258319231348869
 21
142.5000001375474
 31
0.0
  0
ARC
  5
22A1
  8
SAPA_PROFIL
 10
4.0258319231344331
 20
142.20000013754679
 30
0.0
 40
0.3000000000006366
 50
89.999999999913143
 51
179.99999999991309
  0
LINE
  5
22A2
  8
SAPA_PROFIL
 10
3.725831923133796
 20
142.20000013754719
 30
0.0
 11
3.725831923133796
 21
141.7500001375474
 31
0.0
  0
LINE
  5
22A3
  8
SAPA_PROFIL
 10
3.725831923133796
 20
141.7500001375474
 30
0.0
 11
4.5856566607041032
 21
140.26074000647299
 31
0.0
  0
ARC
  5
22A4
  8
SAPA_PROFIL
 10
4.3258490395676787
 20
140.11074000647551
 30
0.0
 40
0.2999999999997121
 50
0.0036468669287298
 51
29.999999999487692
  0
LINE
  5
22A5
  8
SAPA_PROFIL
 10
4.6258490389597
 20
140.11075910142611
 30
0.0
 11
4.6258560887514468
 21
140.00000013754919
 31
0.0
  0
LINE
  5
22A6
  8
SAPA_PROFIL
 10
4.6258560887514468
 20
140.00000013754919
 30
0.0
 11
2.5500000708349262
 21
140.00000013754919
 31
0.0
  0
ARC
  5
22A7
  8
SAPA_PROFIL
 10
2.5500000708349249
 20
140.50000013754919
 30
0.0
 40
0.5
 50
180.0
 51
270.00000000000011
  0
LINE
  5
22A8
  8
SAPA_PROFIL
 10
2.0500000708349262
 20
140.50000013754919
 30
0.0
 11
2.0500000708349262
 21
145.7500001372145
 31
0.0
  0
ARC
  5
22A9
  8
SAPA_PROFIL
 10
2.5500000708349262
 20
145.7500001372145
 30
0.0
 40
0.5
 50
90.0
 51
180.0
  0
LINE
  5
22AA
  8
SAPA_PROFIL
 10
2.5500000708349262
 20
146.2500001372145
 30
0.0
 11
3.0500000744183349
 21
146.2500001372145
 31
0.0
  0
ARC
  5
22AB
  8
SAPA_PROFIL
 10
3.0500000744183349
 20
145.7500001372145
 30
0.0
 40
0.5
 50
0.0
 51
90.0
  0
LINE
  5
22AC
  8
SAPA_PROFIL
 10
3.5500000744183349
 20
145.7500001372145
 30
0.0
 11
3.5500000744237918
 21
144.7500001368071
 31
0.0
  0
LINE
  5
22AD
  8
SAPA_PROFIL
 10
3.5500000744237918
 20
144.7500001368071
 30
0.0
 11
6.7500000748774482
 21
144.75000013680301
 31
0.0
  0
LINE
  5
22AE
  8
SAPA_PROFIL
 10
6.7500000748774482
 20
144.75000013680301
 30
0.0
 11
6.7500000748701723
 21
149.25000013770881
 31
0.0
  0
LINE
  5
22AF
  8
SAPA_PROFIL
 10
6.7500000748701723
 20
149.25000013770881
 30
0.0
 11
-12.74999992917526
 21
149.25000013773021
 31
0.0
  0
ARC
  5
22B0
  8
SAPA_PROFIL
 10
-12.74999992917553
 20
149.45000013773119
 30
0.0
 40
0.2000000000009834
 50
164.3980832556245
 51
270.00000000007742
  0
ARC
  5
22B1
  8
SAPA_PROFIL
 10
-11.979477073217151
 20
149.2348385044294
 30
0.0
 40
1.0000000000005651
 50
96.243588458506252
 51
164.39808325546409
  0
ARC
  5
22B2
  8
SAPA_PROFIL
 10
2.0500000710111399
 20
21.000000133094911
 30
0.0
 40
130.00000000411961
 50
90.000000000087283
 51
96.243588458588974
  0
LINE
  5
22B3
  8
SAPA_PROFIL
 10
2.0500000708130979
 20
151.0000001372145
 30
0.0
 11
7.0500000707330619
 21
151.0000001373528
 31
0.0
  0
ARC
  5
22B4
  8
SAPA_PROFIL
 10
7.0500000708240238
 20
148.0000001373528
 30
0.0
 40
3.0
 50
0.0
 51
90.000000001737249
  0
LINE
  5
22B5
  8
SAPA_PROFIL
 10
10.05000007082401
 20
148.0000001373528
 30
0.0
 11
10.05000007082401
 21
142.7438691785037
 31
0.0
  0
ARC
  5
22B6
  8
SAPA_PROFIL
 10
9.7500000708245356
 20
102.25613109659081
 30
0.0
 40
0.2999999999994767
 50
0.0000000000651378
 51
54.379930240924601
  0
ARC
  5
22B7
  8
SAPA_PROFIL
 10
10.099444720883881
 20
102.7438691784991
 30
0.0
 40
0.2999999999993948
 50
179.9999999998127
 51
234.37993024349581
  0
LINE
  5
22B8
  8
SAPA_PROFIL
 10
9.7994447208844804
 20
102.74386917850001
 30
0.0
 11
9.7994447208844804
 21
103.7000001375354
 31
0.0
  0
ARC
  5
22B9
  8
SAPA_PROFIL
 10
10.099444720888879
 20
103.7000001375412
 30
0.0
 40
0.3000000000044007
 50
117.12809249342099
 51
180.00000000110191
  0
ARC
  5
22BA
  8
SAPA_PROFIL
 10
9.8258559231341387
 20
104.23399374213641
 30
0.0
 40
0.3000000000001489
 50
297.12809249331337
 51
359.99999999995123
  0
LINE
  5
22BB
  8
SAPA_PROFIL
 10
10.12585592313428
 20
104.23399374213609
 30
0.0
 11
10.12585592313428
 21
106.4115420970934
 31
0.0
  0
ARC
  5
22BC
  8
SAPA_PROFIL
 10
9.8258559231347551
 20
106.411542097092
 30
0.0
 40
0.2999999999995264
 50
0.0000000002659792
 51
20.000000000028251
  0
LINE
  5
22BD
  8
SAPA_PROFIL
 10
10.10776370937003
 20
106.5141481400897
 30
0.0
 11
9.5882496416949152
 21
107.94150131013519
 31
0.0
  0
ARC
  5
22BE
  8
SAPA_PROFIL
 10
9.3063418554543418
 20
107.83889526713079
 30
0.0
 40
0.3000000000067832
 50
20.00000000087848
 51
110.0000000002388
  0
LINE
  5
22BF
  8
SAPA_PROFIL
 10
9.2037358124531465
 20
108.1208030533726
 30
0.0
 11
9.0157972883031334
 21
108.0523990247016
 31
0.0
  0
ARC
  5
22C0
  8
SAPA_PROFIL
 10
9.1184033312933401
 20
107.7704912384704
 30
0.0
 40
0.2999999999931287
 50
109.99999999895491
 51
199.9999999989364
  0
LINE
  5
22C1
  8
SAPA_PROFIL
 10
8.8364955450621192
 20
107.6678851954802
 30
0.0
 11
9.2127177027274456
 21
106.6342233126106
 31
0.0
  0
ARC
  5
22C2
  8
SAPA_PROFIL
 10
8.9308099164909223
 20
106.5316172696181
 30
0.0
 40
0.2999999999989432
 50
289.99999999777953
 51
19.999999999026208
  0
LINE
  5
22C3
  8
SAPA_PROFIL
 10
9.0334159594773382
 20
106.24970948337931
 30
0.0
 11
7.2232258801383287
 21
105.59085417614369
 31
0.0
  0
ARC
  5
22C4
  8
SAPA_PROFIL
 10
7.325831923135059
 20
105.3089463899074
 30
0.0
 40
0.3000000000001667
 50
109.9999999997912
 51
180.0000000000162
  0
LINE
  5
22C5
  8
SAPA_PROFIL
 10
7.0258319231348869
 20
105.30894638990731
 30
0.0
 11
7.0258319231348869
 21
104.88923062208779
 31
0.0
  0
ARC
  5
22C6
  8
SAPA_PROFIL
 10
7.325831923134376
 20
104.8892306220885
 30
0.0
 40
0.2999999999994882
 50
180.00000000013841
 51
210.00000000013631
  0
LINE
  5
22C7
  8
SAPA_PROFIL
 10
7.0660243019998461
 20
104.7392306220881
 30
0.0
 11
7.925831923134524
 21
103.2500001375474
 31
0.0
  0
LINE
  5
22C8
  8
SAPA_PROFIL
 10
7.925831923134524
 20
103.2500001375474
 30
0.0
 11
7.9258439231349476
 21
102.8000001375471
 31
0.0
  0
ARC
  5
22C9
  8
SAPA_PROFIL
 10
7.6258439231345436
 20
102.8000001375478
 30
0.0
 40
0.3000000000004039
 50
269.99999999986869
 51
359.99999999986971
  0
LINE
  5
22CA
  8
SAPA_PROFIL
 10
7.6258439231338571
 20
102.5000001375474
 30
0.0
 11
4.0258319231348869
 21
102.5000001375474
 31
0.0
  0
ARC
  5
22CB
  8
SAPA_PROFIL
 10
4.0258319231342048
 20
102.8000001375478
 30
0.0
 40
0.3000000000004093
 50
180.0000000001302
 51
270.00000000013029
  0
LINE
  5
22CC
  8
SAPA_PROFIL
 10
3.725831923133796
 20
102.8000001375471
 30
0.0
 11
3.725831923133796
 21
103.2500001375474
 31
0.0
  0
LINE
  5
22CD
  8
SAPA_PROFIL
 10
3.725831923133796
 20
103.2500001375474
 30
0.0
 11
4.5856566607041032
 21
104.73926026862129
 31
0.0
  0
ARC
  5
22CE
  8
SAPA_PROFIL
 10
4.3258490395676787
 20
104.8892602686189
 30
0.0
 40
0.2999999999997121
 50
330.00000000051227
 51
359.9963531330713
  0
LINE
  5
22CF
  8
SAPA_PROFIL
 10
4.6258490389597
 20
104.8892411736683
 30
0.0
 11
4.6258560887514468
 21
105.0000001375456
 31
0.0
  0
LINE
  5
22D0
  8
SAPA_PROFIL
 10
4.6258560887514468
 20
105.0000001375456
 30
0.0
 11
2.5500000708349262
 21
105.0000001375456
 31
0.0
  0
ARC
  5
22D1
  8
SAPA_PROFIL
 10
2.5500000708349249
 20
104.5000001375456
 30
0.0
 40
0.5
 50
89.999999999999943
 51
180.0
  0
LINE
  5
22D2
  8
SAPA_PROFIL
 10
2.0500000708349262
 20
104.5000001375456
 30
0.0
 11
2.0500000708349262
 21
99.250000137880306
 31
0.0
  0
ARC
  5
22D3
  8
SAPA_PROFIL
 10
2.5500000708349262
 20
99.250000137880306
 30
0.0
 40
0.5
 50
180.0
 51
270.0
  0
LINE
  5
22D4
  8
SAPA_PROFIL
 10
2.5500000708349262
 20
98.75000013788032
 30
0.0
 11
3.0500000744183349
 21
98.75000013788032
 31
0.0
  0
ARC
  5
22D5
  8
SAPA_PROFIL
 10
3.0500000744183349
 20
99.250000137880306
 30
0.0
 40
0.5
 50
270.0
 51
0.0
  0
LINE
  5
22D6
  8
SAPA_PROFIL
 10
3.5500000744183349
 20
99.250000137880306
 30
0.0
 11
3.5500000744237918
 21
100.25000013828731
 31
0.0
  0
LINE
  5
22D7
  8
SAPA_PROFIL
 10
3.5500000744237918
 20
100.25000013828731
 30
0.0
 11
6.7500000748774482
 21
100.2500001382914
 31
0.0
  0
LINE
  5
22D8
  8
SAPA_PROFIL
 10
6.7500000748774482
 20
100.2500001382914
 30
0.0
 11
6.7500000748701723
 21
95.750000137385541
 31
0.0
  0
LINE
  5
22D9
  8
SAPA_PROFIL
 10
6.7500000748701723
 20
95.750000137385541
 30
0.0
 11
-12.74999992917526
 21
95.750000137364168
 31
0.0
  0
ARC
  5
22DA
  8
SAPA_PROFIL
 10
-12.74999992917553
 20
95.550000137363185
 30
0.0
 40
0.2000000000009834
 50
89.99999999992265
 51
195.60191674437539
  0
ARC
  5
22DB
  8
SAPA_PROFIL
 10
-11.979477073217151
 20
95.765161770664918
 30
0.0
 40
1.0000000000005611
 50
195.601916744535
 51
263.75641154149361
  0
ARC
  5
22DC
  8
SAPA_PROFIL
 10
2.0500000710111399
 20
224.00000014199949
 30
0.0
 40
130.00000000411961
 50
263.75641154141101
 51
269.99999999991269
  0
LINE
  5
22DD
  8
SAPA_PROFIL
 10
2.0500000708130979
 20
94.000000137879866
 30
0.0
 11
7.0500000707330619
 21
94.000000137742063
 31
0.0
  0
ARC
  5
22DE
  8
SAPA_PROFIL
 10
7.0500000708240238
 20
97.000000137742049
 30
0.0
 40
2.9999999999999849
 50
269.99999999826269
 51
0.0000000000002714
  0
LINE
  5
22DF
  8
SAPA_PROFIL
 10
10.05000007082401
 20
97.000000137742063
 30
0.0
 11
10.05000007082401
 21
102.2561310965911
 31
0.0
  0
ARC
  5
22E0
  8
SAPA_PROFIL
 62
     4
 10
24.642051338074591
 20
139.41342279038059
 30
-0.2
 40
1.3416252492699461
 50
151.97558124348359
 51
179.20443003930441
  0
LINE
  5
22E1
  8
SAPA_PROFIL
 62
     4
 10
23.457735097698901
 20
140.0437824910762
 30
-0.2
 11
24.450555420728168
 21
141.76339773334999
 31
-0.2
  0
LINE
  5
22E2
  8
SAPA_PROFIL
 62
     4
 10
24.450555420728168
 20
141.76339773334999
 30
-0.2
 11
24.450555420728168
 21
142.20000027372859
 31
-0.2
  0
ARC
  5
22E3
  8
SAPA_PROFIL
 62
     4
 10
24.200555420728161
 20
142.20000027372859
 30
-0.2
 40
0.25
 50
0.0
 51
90.0
  0
LINE
  5
22E4
  8
SAPA_PROFIL
 62
     4
 10
24.200555420728161
 20
142.45000027372859
 30
-0.2
 11
20.60054342072829
 21
142.45000027372859
 31
-0.2
  0
ARC
  5
22E5
  8
SAPA_PROFIL
 62
     4
 10
20.600543420728279
 20
142.20000027372859
 30
-0.2
 40
0.25
 50
89.999999999999204
 51
180.0
  0
LINE
  5
22E6
  8
SAPA_PROFIL
 62
     4
 10
20.35054342072829
 20
142.20000027372859
 30
-0.2
 11
20.35055506346373
 21
141.7633983521502
 31
-0.2
  0
LINE
  5
22E7
  8
SAPA_PROFIL
 62
     4
 10
20.35055506346373
 20
141.7633983521502
 30
-0.2
 11
21.343375743753882
 21
140.04378249108271
 31
-0.2
  0
ARC
  5
22E8
  8
SAPA_PROFIL
 62
     4
 10
20.22315063926057
 20
139.4298097409231
 30
-0.2
 40
1.277445428453053
 50
0.4570690070798568
 51
28.7262573819342
  0
LINE
  5
22E9
  8
SAPA_PROFIL
 62
     4
 10
21.50055542072835
 20
139.4400002737286
 30
-0.2
 11
21.50055542072835
 21
105.56000027372851
 31
-0.2
  0
ARC
  5
22EA
  8
SAPA_PROFIL
 62
     4
 10
20.22315063926057
 20
105.570190806534
 30
-0.2
 40
1.2774454284530501
 50
331.27374261806568
 51
359.54293099292011
  0
LINE
  5
22EB
  8
SAPA_PROFIL
 62
     4
 10
21.343375743753882
 20
104.9562180563744
 30
-0.2
 11
20.35055506346373
 21
103.2366021953069
 31
-0.2
  0
LINE
  5
22EC
  8
SAPA_PROFIL
 62
     4
 10
20.35055506346373
 20
103.2366021953069
 30
-0.2
 11
20.35054342072829
 21
102.8000002737285
 31
-0.2
  0
ARC
  5
22ED
  8
SAPA_PROFIL
 62
     4
 10
20.600543420728279
 20
102.8000002737285
 30
-0.2
 40
0.2499999999999964
 50
180.0
 51
270.0000000000008
  0
LINE
  5
22EE
  8
SAPA_PROFIL
 62
     4
 10
20.60054342072829
 20
102.5500002737285
 30
-0.2
 11
24.200555420728161
 21
102.5500002737285
 31
-0.2
  0
ARC
  5
22EF
  8
SAPA_PROFIL
 62
     4
 10
24.200555420728161
 20
102.8000002737285
 30
-0.2
 40
0.25
 50
270.0
 51
0.0
  0
LINE
  5
22F0
  8
SAPA_PROFIL
 62
     4
 10
24.450555420728168
 20
102.8000002737285
 30
-0.2
 11
24.450555420728168
 21
103.236602814107
 31
-0.2
  0
LINE
  5
22F1
  8
SAPA_PROFIL
 62
     4
 10
24.450555420728168
 20
103.236602814107
 30
-0.2
 11
23.457735097698901
 21
104.956218056381
 31
-0.2
  0
ARC
  5
22F2
  8
SAPA_PROFIL
 62
     4
 10
24.642051338074591
 20
105.5865777570765
 30
-0.2
 40
1.341625249269949
 50
180.79556996069621
 51
208.02441875651689
  0
LINE
  5
22F3
  8
SAPA_PROFIL
 62
     4
 10
23.300555420728529
 20
105.5679494661597
 30
-0.2
 11
23.300555420728529
 21
139.4320510812974
 31
-0.2
  0
LINE
  5
22F4
  8
SAPA_PROFIL
 10
-5.9499999292119119
 20
180.0000002734011
 30
0.0
 11
-5.9499999292119119
 21
179.21146129878949
 31
0.0
  0
ARC
  5
22F5
  8
SAPA_PROFIL
 10
-15.94999992924023
 20
179.21146129869871
 30
0.0
 40
10.00000000002831
 50
346.78979035294628
 51
0.0000000005202879
  0
ARC
  5
22F6
  8
SAPA_PROFIL
 10
42.462291898207873
 20
165.5000002730655
 30
0.0
 40
49.999999999908511
 50
166.78979035199271
 51
192.42579191066551
  0
ARC
  5
22F7
  8
SAPA_PROFIL
 10
-3.4367573285007902
 20
155.3867772426394
 30
0.0
 40
3.0000000001322702
 50
192.42579191070669
 51
272.36434044995849
  0
ARC
  5
22F8
  8
SAPA_PROFIL
 10
2.050000070835869
 20
22.500000274200371
 30
0.0
 40
129.9999999991866
 50
84.11075825159304
 51
92.364340450064944
  0
ARC
  5
22F9
  8
SAPA_PROFIL
 10
14.362691594717949
 20
141.86665234775671
 30
0.0
 40
9.9999999999710525
 50
73.290892467377233
 51
84.110758251437986
  0
ARC
  5
22FA
  8
SAPA_PROFIL
 10
10.050000070771549
 20
127.5000002736009
 30
0.0
 40
24.999999999989932
 50
70.537049053670216
 51
73.290892467422509
  0
ARC
  5
22FB
  8
SAPA_PROFIL
 10
21.71190386049296
 20
160.50000027358081
 30
0.0
 40
10.000000000001391
 50
250.53704905351631
 51
269.99999999997129
  0
LINE
  5
22FC
  8
SAPA_PROFIL
 10
21.711903860487951
 20
150.50000027357939
 30
0.0
 11
29.050000070817191
 21
150.50000027357939
 31
0.0
  0
ARC
  5
22FD
  8
SAPA_PROFIL
 10
29.050000070817191
 20
145.50000027357939
 30
0.0
 40
5.0
 50
0.0
 51
90.0
  0
LINE
  5
22FE
  8
SAPA_PROFIL
 10
34.050000070817191
 20
145.50000027357939
 30
0.0
 11
34.050000070806277
 21
142.74386931467939
 31
0.0
  0
ARC
  5
22FF
  8
SAPA_PROFIL
 10
33.750000070786982
 20
142.74386931467569
 30
0.0
 40
0.3000000000192955
 50
305.62006976059268
 51
0.0000000006948028
  0
ARC
  5
2300
  8
SAPA_PROFIL
 10
34.099444720835407
 20
142.25613123274849
 30
0.0
 40
0.2999999999886682
 50
125.6200697511796
 51
179.999999994409
  0
LINE
  5
2301
  8
SAPA_PROFIL
 10
33.799444720846743
 20
142.2561312327777
 30
0.0
 11
33.799444720846743
 21
141.30000027372779
 31
0.0
  0
ARC
  5
2302
  8
SAPA_PROFIL
 10
34.099444720847572
 20
141.30000027372861
 30
0.0
 40
0.3000000000008356
 50
180.000000000152
 51
250.53364100090531
  0
LINE
  5
2303
  8
SAPA_PROFIL
 10
33.999468720848313
 20
141.0171490771169
 30
0.0
 11
33.999468720848313
 21
138.71418983610391
 31
0.0
  0
ARC
  5
2304
  8
SAPA_PROFIL
 10
32.999468720847837
 20
138.714189836103
 30
0.0
 40
1.0000000000004761
 50
225.0000000000561
 51
0.0000000000521102
  0
LINE
  5
2305
  8
SAPA_PROFIL
 10
32.292361939661653
 20
138.00708305491551
 30
0.0
 11
30.98731268649237
 21
139.3121323080847
 31
0.0
  0
ARC
  5
2306
  8
SAPA_PROFIL
 10
31.19944472085054
 20
139.5242643424408
 30
0.0
 40
0.3000000000016172
 50
179.999999999696
 51
224.99999999971311
  0
LINE
  5
2307
  8
SAPA_PROFIL
 10
30.899444720848919
 20
139.52426434244239
 30
0.0
 11
30.899444720848919
 21
140.11076978918911
 31
0.0
  0
ARC
  5
2308
  8
SAPA_PROFIL
 10
31.199444720845008
 20
140.11076978918749
 30
0.0
 40
0.2999999999960963
 50
149.9999999996879
 51
179.99999999968509
  0
LINE
  5
2309
  8
SAPA_PROFIL
 10
30.939637099713881
 20
140.2607697891869
 30
0.0
 11
31.799444720848548
 21
141.75000027372849
 31
0.0
  0
LINE
  5
230A
  8
SAPA_PROFIL
 10
31.799444720848548
 20
141.75000027372849
 30
0.0
 11
31.799456720847161
 21
142.2000002737293
 31
0.0
  0
ARC
  5
230B
  8
SAPA_PROFIL
 10
31.499456720847888
 20
142.2000002737293
 30
0.0
 40
0.2999999999992688
 50
0.0
 51
90.000000000000668
  0
LINE
  5
230C
  8
SAPA_PROFIL
 10
31.499456720847888
 20
142.50000027372849
 30
0.0
 11
27.8994447208471
 21
142.50000027372849
 31
0.0
  0
ARC
  5
230D
  8
SAPA_PROFIL
 10
27.8994447208471
 20
142.2000002737293
 30
0.0
 40
0.2999999999992724
 50
90.0
 51
180.0
  0
LINE
  5
230E
  8
SAPA_PROFIL
 10
27.599444720847831
 20
142.2000002737293
 30
0.0
 11
27.599444720847831
 21
141.75000027372849
 31
0.0
  0
LINE
  5
230F
  8
SAPA_PROFIL
 10
27.599444720847831
 20
141.75000027372849
 30
0.0
 11
28.459269458416319
 21
140.2607401426537
 31
0.0
  0
ARC
  5
2310
  8
SAPA_PROFIL
 10
28.199461837279951
 20
140.1107401426525
 30
0.0
 40
0.3000000000014796
 50
0.0036468675366608
 51
30.000000000095088
  0
LINE
  5
2311
  8
SAPA_PROFIL
 10
28.499461836673731
 20
140.11075923760629
 30
0.0
 11
28.499468720848309
 21
140.0000002737213
 31
0.0
  0
LINE
  5
2312
  8
SAPA_PROFIL
 10
28.499468720848309
 20
140.0000002737213
 30
0.0
 11
26.050000070788091
 21
140.0000002737286
 31
0.0
  0
LINE
  5
2313
  8
SAPA_PROFIL
 10
26.050000070788091
 20
140.0000002737286
 30
0.0
 11
23.600531420727862
 21
140.002602273729
 31
0.0
  0
LINE
  5
2314
  8
SAPA_PROFIL
 10
23.600531420727862
 20
140.002602273729
 30
0.0
 11
23.60053830490244
 21
140.11075923760629
 31
0.0
  0
ARC
  5
2315
  8
SAPA_PROFIL
 10
23.900538304296219
 20
140.1107401426525
 30
0.0
 40
0.3000000000014753
 50
149.9999999999049
 51
179.9963531324633
  0
LINE
  5
2316
  8
SAPA_PROFIL
 10
23.640730683159859
 20
140.2607401426537
 30
0.0
 11
24.50055542072835
 21
141.75000027372849
 31
0.0
  0
LINE
  5
2317
  8
SAPA_PROFIL
 10
24.50055542072835
 20
141.75000027372849
 30
0.0
 11
24.50055542072835
 21
142.2000002737293
 31
0.0
  0
ARC
  5
2318
  8
SAPA_PROFIL
 10
24.200555420729071
 20
142.2000002737293
 30
0.0
 40
0.2999999999992724
 50
0.0
 51
90.0
  0
LINE
  5
2319
  8
SAPA_PROFIL
 10
24.200555420729071
 20
142.50000027372849
 30
0.0
 11
20.60054342072829
 21
142.50000027372849
 31
0.0
  0
ARC
  5
231A
  8
SAPA_PROFIL
 10
20.600543420728279
 20
142.2000002737293
 30
0.0
 40
0.2999999999992724
 50
89.999999999999346
 51
180.0
  0
LINE
  5
231B
  8
SAPA_PROFIL
 10
20.30054342072901
 20
142.2000002737293
 30
0.0
 11
20.300555420727619
 21
141.75000027372849
 31
0.0
  0
LINE
  5
231C
  8
SAPA_PROFIL
 10
20.300555420727619
 20
141.75000027372849
 30
0.0
 11
21.160363041862301
 21
140.2607697891869
 31
0.0
  0
ARC
  5
231D
  8
SAPA_PROFIL
 10
20.900555420731159
 20
140.11076978918749
 30
0.0
 40
0.2999999999961011
 50
0.0000000003148325
 51
30.000000000312092
  0
LINE
  5
231E
  8
SAPA_PROFIL
 10
21.200555420727259
 20
140.11076978918911
 30
0.0
 11
21.200555420727259
 21
139.52426434244239
 31
0.0
  0
ARC
  5
231F
  8
SAPA_PROFIL
 10
20.900555420725631
 20
139.5242643424408
 30
0.0
 40
0.3000000000016243
 50
315.00000000028689
 51
0.0000000003039762
  0
LINE
  5
2320
  8
SAPA_PROFIL
 10
21.112687455083801
 20
139.3121323080847
 30
0.0
 11
19.807638201914529
 21
138.00708305491551
 31
0.0
  0
ARC
  5
2321
  8
SAPA_PROFIL
 10
19.100531420728341
 20
138.714189836103
 30
0.0
 40
1.000000000000475
 50
179.9999999999479
 51
314.9999999999439
  0
LINE
  5
2322
  8
SAPA_PROFIL
 10
18.100531420727862
 20
138.71418983610391
 30
0.0
 11
18.100531420727862
 21
141.0171490771169
 31
0.0
  0
ARC
  5
2323
  8
SAPA_PROFIL
 10
18.000555420727419
 20
141.30000027372751
 30
0.0
 40
0.3000000000001792
 50
289.46635899937712
 51
0.0000000000597096
  0
LINE
  5
2324
  8
SAPA_PROFIL
 10
18.300555420727619
 20
141.30000027372779
 30
0.0
 11
18.300555420727619
 21
142.2561312327777
 31
0.0
  0
ARC
  5
2325
  8
SAPA_PROFIL
 10
18.000555420733061
 20
142.25613123276909
 30
0.0
 40
0.2999999999945544
 50
0.0000000016501566
 51
54.379930245254698
  0
ARC
  5
2326
  8
SAPA_PROFIL
 10
18.350000070767059
 20
142.74386931472031
 30
0.0
 40
0.3000000000244478
 50
180.00000000781651
 51
234.3799302478759
  0
LINE
  5
2327
  8
SAPA_PROFIL
 10
18.050000070742609
 20
142.74386931467939
 30
0.0
 11
18.050000070788091
 21
143.5000002734011
 31
0.0
  0
ARC
  5
2328
  8
SAPA_PROFIL
 10
19.050000070788091
 20
143.5000002734011
 30
0.0
 40
1.0
 50
90.000000004064574
 51
180.0
  0
LINE
  5
2329
  8
SAPA_PROFIL
 10
19.05000007071715
 20
144.5000002734011
 30
0.0
 11
21.550000070946339
 21
144.50000027357939
 31
0.0
  0
ARC
  5
232A
  8
SAPA_PROFIL
 10
21.550000070797179
 20
146.50000027357939
 30
0.0
 40
2.0
 50
270.00000000427298
 51
90.0
  0
LINE
  5
232B
  8
SAPA_PROFIL
 10
21.550000070797179
 20
148.50000027357939
 30
0.0
 11
13.55000007079718
 21
148.50000027357939
 31
0.0
  0
ARC
  5
232C
  8
SAPA_PROFIL
 10
13.55000007079536
 20
146.50000027358121
 30
0.0
 40
1.999999999998181
 50
89.999999999947889
 51
180.00000000036479
  0
LINE
  5
232D
  8
SAPA_PROFIL
 10
11.55000007079718
 20
146.5000002735685
 30
0.0
 11
11.55000007081537
 21
144.80000027338949
 31
0.0
  0
ARC
  5
232E
  8
SAPA_PROFIL
 10
11.850000070816369
 20
144.80000027340211
 30
0.0
 40
0.3000000000009972
 50
180.0000000024155
 51
270.00000000210241
  0
LINE
  5
232F
  8
SAPA_PROFIL
 10
11.850000070827379
 20
144.5000002734011
 30
0.0
 11
12.75000007081792
 21
144.50000027339391
 31
0.0
  0
ARC
  5
2330
  8
SAPA_PROFIL
 10
12.75000007082155
 20
144.2000002733873
 30
0.0
 40
0.3000000000065484
 50
0.0000000006948028
 51
90.000000000694115
  0
LINE
  5
2331
  8
SAPA_PROFIL
 10
13.0500000708281
 20
144.20000027339091
 30
0.0
 11
13.0500000708281
 21
143.80000027338949
 31
0.0
  0
ARC
  5
2332
  8
SAPA_PROFIL
 10
12.75000007081792
 20
143.80000027338949
 30
0.0
 40
0.3000000000101846
 50
269.99999999999972
 51
0.0
  0
LINE
  5
2333
  8
SAPA_PROFIL
 10
12.75000007081792
 20
143.5000002733793
 30
0.0
 11
10.35000007080737
 21
143.50000027339749
 31
0.0
  0
ARC
  5
2334
  8
SAPA_PROFIL
 10
10.35000007080828
 20
143.80000027339949
 30
0.0
 40
0.3000000000020009
 50
180.00000000191071
 51
269.99999999982629
  0
LINE
  5
2335
  8
SAPA_PROFIL
 10
10.05000007080627
 20
143.80000027338949
 30
0.0
 11
10.05000007080627
 21
148.0000002734011
 31
0.0
  0
ARC
  5
2336
  8
SAPA_PROFIL
 10
7.0500000708071848
 20
148.00000027339109
 30
0.0
 40
2.9999999999990909
 50
0.0000000001910708
 51
90.000000000191037
  0
LINE
  5
2337
  8
SAPA_PROFIL
 10
7.0500000707971822
 20
151.00000027339021
 30
0.0
 11
2.0500000708062771
 21
151.00000027339021
 31
0.0
  0
ARC
  5
2338
  8
SAPA_PROFIL
 10
2.050000070800424
 20
21.000000273343009
 30
0.0
 40
130.00000000004721
 50
89.999999999997414
 51
96.399202985455105
  0
ARC
  5
2339
  8
SAPA_PROFIL
 10
-12.349999928456031
 20
149.39501575234851
 30
0.0
 40
0.8000000006948486
 50
96.399203033361374
 51
176.8480294721532
  0
ARC
  5
233A
  8
SAPA_PROFIL
 10
-13.34848713614319
 20
149.4500002726661
 30
0.0
 40
0.1999999999998849
 50
270.00000000024022
 51
356.8480294251541
  0
LINE
  5
233B
  8
SAPA_PROFIL
 10
-13.348487136142349
 20
149.25000027266631
 30
0.0
 11
-14.24999992920209
 21
149.25000027266631
 31
0.0
  0
ARC
  5
233C
  8
SAPA_PROFIL
 10
-14.24999992920028
 20
149.45000027266519
 30
0.0
 40
0.1999999999989086
 50
179.9999999963523
 51
269.99999999948091
  0
LINE
  5
233D
  8
SAPA_PROFIL
 10
-14.44999992919918
 20
149.4500002726779
 30
0.0
 11
-14.449999929211909
 21
149.6760593411488
 31
0.0
  0
ARC
  5
233E
  8
SAPA_PROFIL
 10
-12.449999929210041
 20
149.67605934112871
 30
0.0
 40
2.0000000000018701
 50
96.504500094059722
 51
179.9999999994219
  0
ARC
  5
233F
  8
SAPA_PROFIL
 10
2.050000069891794
 20
22.500000277794129
 30
0.0
 40
129.9999999955281
 50
96.180341495190291
 51
96.504500093839042
  0
ARC
  5
2340
  8
SAPA_PROFIL
 10
-12.05323075283035
 20
152.73862311763179
 30
0.0
 40
1.0000000001072931
 50
276.18034150012022
 51
344.90404966718739
  0
ARC
  5
2341
  8
SAPA_PROFIL
 10
-59.362291756765657
 20
165.50000027340181
 30
0.0
 40
49.999999999963222
 50
344.90404965994452
 51
13.210209647575301
  0
ARC
  5
2342
  8
SAPA_PROFIL
 10
-0.9499999292122076
 20
179.2114612987005
 30
0.0
 40
9.9999999999997051
 50
180.00000000005241
 51
193.21020964720941
  0
LINE
  5
2343
  8
SAPA_PROFIL
 10
-10.949999929211909
 20
179.21146129869129
 30
0.0
 11
-10.949999929211909
 21
180.0000002734011
 31
0.0
  0
ARC
  5
2344
  8
SAPA_PROFIL
 10
-9.9499999292119128
 20
180.0000002734011
 30
0.0
 40
1.0
 50
90.0
 51
180.0
  0
LINE
  5
2345
  8
SAPA_PROFIL
 10
-9.9499999292119128
 20
181.0000002734011
 30
0.0
 11
-6.9499999292119119
 21
181.0000002734011
 31
0.0
  0
ARC
  5
2346
  8
SAPA_PROFIL
 10
-6.9499999292119119
 20
180.0000002734011
 30
0.0
 40
1.0
 50
0.0
 51
90.0
  0
ARC
  5
2347
  8
SAPA_PROFIL
 62
     4
 10
27.45794880350158
 20
139.41342279038059
 30
-0.2
 40
1.3416252492699461
 50
0.7955699606955833
 51
28.024418756516361
  0
LINE
  5
2348
  8
SAPA_PROFIL
 62
     4
 10
28.642265043877281
 20
140.0437824910762
 30
-0.2
 11
27.64944472084801
 21
141.76339773334999
 31
-0.2
  0
LINE
  5
2349
  8
SAPA_PROFIL
 62
     4
 10
27.64944472084801
 20
141.76339773334999
 30
-0.2
 11
27.64944472084801
 21
142.20000027372859
 31
-0.2
  0
ARC
  5
234A
  8
SAPA_PROFIL
 62
     4
 10
27.89944472084801
 20
142.20000027372859
 30
-0.2
 40
0.25
 50
90.0
 51
180.0
  0
LINE
  5
234B
  8
SAPA_PROFIL
 62
     4
 10
27.89944472084801
 20
142.45000027372859
 30
-0.2
 11
31.499456720847888
 21
142.45000027372859
 31
-0.2
  0
ARC
  5
234C
  8
SAPA_PROFIL
 62
     4
 10
31.499456720847888
 20
142.20000027372859
 30
-0.2
 40
0.25
 50
0.0
 51
90.00000000000081
  0
LINE
  5
234D
  8
SAPA_PROFIL
 62
     4
 10
31.749456720847888
 20
142.20000027372859
 30
-0.2
 11
31.749445078112451
 21
141.7633983521502
 31
-0.2
  0
LINE
  5
234E
  8
SAPA_PROFIL
 62
     4
 10
31.749445078112451
 20
141.7633983521502
 30
-0.2
 11
30.7566243978223
 21
140.04378249108271
 31
-0.2
  0
ARC
  5
234F
  8
SAPA_PROFIL
 62
     4
 10
31.876849502315611
 20
139.4298097409231
 30
-0.2
 40
1.277445428453053
 50
151.2737426180658
 51
179.54293099292011
  0
LINE
  5
2350
  8
SAPA_PROFIL
 62
     4
 10
30.599444720847831
 20
139.4400002737286
 30
-0.2
 11
30.599444720847831
 21
105.56000027372851
 31
-0.2
  0
ARC
  5
2351
  8
SAPA_PROFIL
 62
     4
 10
31.876849502315601
 20
105.570190806534
 30
-0.2
 40
1.2774454284530501
 50
180.45706900707981
 51
208.72625738193429
  0
LINE
  5
2352
  8
SAPA_PROFIL
 62
     4
 10
30.7566243978223
 20
104.9562180563744
 30
-0.2
 11
31.749445078112451
 21
103.2366021953069
 31
-0.2
  0
LINE
  5
2353
  8
SAPA_PROFIL
 62
     4
 10
31.749445078112451
 20
103.2366021953069
 30
-0.2
 11
31.749456720847888
 21
102.8000002737285
 31
-0.2
  0
ARC
  5
2354
  8
SAPA_PROFIL
 62
     4
 10
31.499456720847888
 20
102.8000002737285
 30
-0.2
 40
0.2499999999999964
 50
269.9999999999992
 51
0.0
  0
LINE
  5
2355
  8
SAPA_PROFIL
 62
     4
 10
31.499456720847888
 20
102.5500002737285
 30
-0.2
 11
27.89944472084801
 21
102.5500002737285
 31
-0.2
  0
ARC
  5
2356
  8
SAPA_PROFIL
 62
     4
 10
27.89944472084801
 20
102.8000002737285
 30
-0.2
 40
0.25
 50
180.0
 51
270.0
  0
LINE
  5
2357
  8
SAPA_PROFIL
 62
     4
 10
27.64944472084801
 20
102.8000002737285
 30
-0.2
 11
27.64944472084801
 21
103.236602814107
 31
-0.2
  0
LINE
  5
2358
  8
SAPA_PROFIL
 62
     4
 10
27.64944472084801
 20
103.236602814107
 30
-0.2
 11
28.642265043877281
 21
104.956218056381
 31
-0.2
  0
ARC
  5
2359
  8
SAPA_PROFIL
 62
     4
 10
27.45794880350158
 20
105.5865777570765
 30
-0.2
 40
1.341625249269949
 50
331.97558124348308
 51
359.20443003930382
  0
LINE
  5
235A
  8
SAPA_PROFIL
 62
     4
 10
28.799444720847649
 20
105.5679494661597
 30
-0.2
 11
28.799444720847649
 21
139.4320510812974
 31
-0.2
  0
LINE
  5
235B
  8
SAPA_PROFIL
 10
-5.9499999292119119
 20
65.000000274055992
 30
0.0
 11
-5.9499999292119119
 21
65.788539248667576
 31
0.0
  0
ARC
  5
235C
  8
SAPA_PROFIL
 10
-15.94999992924023
 20
65.788539248758397
 30
0.0
 40
10.00000000002831
 50
359.9999999994796
 51
13.210209647053571
  0
ARC
  5
235D
  8
SAPA_PROFIL
 10
42.462291898207873
 20
79.500000274391624
 30
0.0
 40
49.999999999908511
 50
167.57420808933441
 51
193.21020964800729
  0
ARC
  5
235E
  8
SAPA_PROFIL
 10
-3.4367573285007902
 20
89.613223304817765
 30
0.0
 40
3.0000000001322702
 50
87.635659550041481
 51
167.57420808929319
  0
ARC
  5
235F
  8
SAPA_PROFIL
 10
2.050000070835869
 20
222.5000002732568
 30
0.0
 40
129.9999999991866
 50
267.63565954993499
 51
275.8892417484069
  0
ARC
  5
2360
  8
SAPA_PROFIL
 10
14.362691594717949
 20
103.13334819970029
 30
0.0
 40
9.9999999999710525
 50
275.88924174856197
 51
286.7091075326228
  0
ARC
  5
2361
  8
SAPA_PROFIL
 10
10.050000070771549
 20
117.5000002738562
 30
0.0
 40
24.999999999989932
 50
286.70910753257749
 51
289.46295094632978
  0
ARC
  5
2362
  8
SAPA_PROFIL
 10
21.71190386049296
 20
84.500000273876324
 30
0.0
 40
10.0000000000014
 50
90.000000000028706
 51
109.4629509464836
  0
LINE
  5
2363
  8
SAPA_PROFIL
 10
21.711903860487951
 20
94.500000273877731
 30
0.0
 11
29.050000070817191
 21
94.500000273877731
 31
0.0
  0
ARC
  5
2364
  8
SAPA_PROFIL
 10
29.050000070817191
 20
99.500000273877731
 30
0.0
 40
5.0
 50
270.0
 51
0.0
  0
LINE
  5
2365
  8
SAPA_PROFIL
 10
34.050000070817191
 20
99.500000273877731
 30
0.0
 11
34.050000070806277
 21
102.2561312327777
 31
0.0
  0
ARC
  5
2366
  8
SAPA_PROFIL
 10
33.750000070786982
 20
102.2561312327814
 30
0.0
 40
0.3000000000192955
 50
359.9999999993052
 51
54.379930239407287
  0
ARC
  5
2367
  8
SAPA_PROFIL
 10
34.099444720835407
 20
102.7438693147086
 30
0.0
 40
0.2999999999886798
 50
180.00000000559371
 51
234.37993024882189
  0
LINE
  5
2368
  8
SAPA_PROFIL
 10
33.799444720846743
 20
102.7438693146794
 30
0.0
 11
33.799444720846743
 21
103.7000002737293
 31
0.0
  0
ARC
  5
2369
  8
SAPA_PROFIL
 10
34.099444720847572
 20
103.70000027372851
 30
0.0
 40
0.3000000000008356
 50
109.46635899909469
 51
179.999999999848
  0
LINE
  5
236A
  8
SAPA_PROFIL
 10
33.999468720848313
 20
103.98285147034009
 30
0.0
 11
33.999468720848313
 21
106.28581071135319
 31
0.0
  0
ARC
  5
236B
  8
SAPA_PROFIL
 10
32.999468720847837
 20
106.2858107113541
 30
0.0
 40
1.0000000000004761
 50
359.99999999994787
 51
134.99999999994381
  0
LINE
  5
236C
  8
SAPA_PROFIL
 10
32.292361939661653
 20
106.99291749254159
 30
0.0
 11
30.98731268649237
 21
105.68786823937241
 31
0.0
  0
ARC
  5
236D
  8
SAPA_PROFIL
 10
31.19944472085054
 20
105.4757362050163
 30
0.0
 40
0.3000000000016273
 50
135.00000000028501
 51
180.0000000003013
  0
LINE
  5
236E
  8
SAPA_PROFIL
 10
30.899444720848919
 20
105.4757362050147
 30
0.0
 11
30.899444720848919
 21
104.889230758268
 31
0.0
  0
ARC
  5
236F
  8
SAPA_PROFIL
 10
31.199444720845008
 20
104.8892307582696
 30
0.0
 40
0.2999999999960963
 50
180.0000000003121
 51
210.0000000003098
  0
LINE
  5
2370
  8
SAPA_PROFIL
 10
30.939637099713881
 20
104.7392307582702
 30
0.0
 11
31.799444720848548
 21
103.2500002737285
 31
0.0
  0
LINE
  5
2371
  8
SAPA_PROFIL
 10
31.799444720848548
 20
103.2500002737285
 30
0.0
 11
31.799456720847161
 21
102.8000002737278
 31
0.0
  0
ARC
  5
2372
  8
SAPA_PROFIL
 10
31.499456720847888
 20
102.8000002737278
 30
0.0
 40
0.2999999999992688
 50
269.99999999999932
 51
0.0
  0
LINE
  5
2373
  8
SAPA_PROFIL
 10
31.499456720847888
 20
102.5000002737286
 30
0.0
 11
27.8994447208471
 21
102.5000002737286
 31
0.0
  0
ARC
  5
2374
  8
SAPA_PROFIL
 10
27.8994447208471
 20
102.8000002737278
 30
0.0
 40
0.2999999999992724
 50
180.0
 51
270.0
  0
LINE
  5
2375
  8
SAPA_PROFIL
 10
27.599444720847831
 20
102.8000002737278
 30
0.0
 11
27.599444720847831
 21
103.2500002737285
 31
0.0
  0
LINE
  5
2376
  8
SAPA_PROFIL
 10
27.599444720847831
 20
103.2500002737285
 30
0.0
 11
28.459269458416319
 21
104.7392604048034
 31
0.0
  0
ARC
  5
2377
  8
SAPA_PROFIL
 10
28.199461837279951
 20
104.8892604048045
 30
0.0
 40
0.3000000000014725
 50
329.99999999990729
 51
359.99635313246603
  0
LINE
  5
2378
  8
SAPA_PROFIL
 10
28.499461836673731
 20
104.8892413098508
 30
0.0
 11
28.499468720848309
 21
105.00000027373579
 31
0.0
  0
LINE
  5
2379
  8
SAPA_PROFIL
 10
28.499468720848309
 20
105.00000027373579
 30
0.0
 11
26.050000070788091
 21
105.0000002737285
 31
0.0
  0
LINE
  5
237A
  8
SAPA_PROFIL
 10
26.050000070788091
 20
105.0000002737285
 30
0.0
 11
23.600531420727862
 21
104.99739827372809
 31
0.0
  0
LINE
  5
237B
  8
SAPA_PROFIL
 10
23.600531420727862
 20
104.99739827372809
 30
0.0
 11
23.60053830490244
 21
104.8892413098508
 31
0.0
  0
ARC
  5
237C
  8
SAPA_PROFIL
 10
23.900538304296219
 20
104.8892604048045
 30
0.0
 40
0.3000000000014753
 50
180.00364686753389
 51
210.00000000009271
  0
LINE
  5
237D
  8
SAPA_PROFIL
 10
23.640730683159859
 20
104.7392604048034
 30
0.0
 11
24.50055542072835
 21
103.2500002737285
 31
0.0
  0
LINE
  5
237E
  8
SAPA_PROFIL
 10
24.50055542072835
 20
103.2500002737285
 30
0.0
 11
24.50055542072835
 21
102.8000002737278
 31
0.0
  0
ARC
  5
237F
  8
SAPA_PROFIL
 10
24.200555420729071
 20
102.8000002737278
 30
0.0
 40
0.2999999999992724
 50
270.0
 51
0.0
  0
LINE
  5
2380
  8
SAPA_PROFIL
 10
24.200555420729071
 20
102.5000002737286
 30
0.0
 11
20.60054342072829
 21
102.5000002737286
 31
0.0
  0
ARC
  5
2381
  8
SAPA_PROFIL
 10
20.600543420728279
 20
102.8000002737278
 30
0.0
 40
0.2999999999992724
 50
180.0
 51
270.00000000000068
  0
LINE
  5
2382
  8
SAPA_PROFIL
 10
20.30054342072901
 20
102.8000002737278
 30
0.0
 11
20.300555420727619
 21
103.2500002737285
 31
0.0
  0
LINE
  5
2383
  8
SAPA_PROFIL
 10
20.300555420727619
 20
103.2500002737285
 30
0.0
 11
21.160363041862301
 21
104.7392307582702
 31
0.0
  0
ARC
  5
2384
  8
SAPA_PROFIL
 10
20.900555420731159
 20
104.8892307582696
 30
0.0
 40
0.299999999996094
 50
329.99999999969032
 51
359.99999999968787
  0
LINE
  5
2385
  8
SAPA_PROFIL
 10
21.200555420727259
 20
104.889230758268
 30
0.0
 11
21.200555420727259
 21
105.4757362050147
 31
0.0
  0
ARC
  5
2386
  8
SAPA_PROFIL
 10
20.900555420725631
 20
105.4757362050163
 30
0.0
 40
0.3000000000016243
 50
359.99999999969867
 51
44.999999999715008
  0
LINE
  5
2387
  8
SAPA_PROFIL
 10
21.112687455083801
 20
105.68786823937241
 30
0.0
 11
19.807638201914529
 21
106.99291749254159
 31
0.0
  0
ARC
  5
2388
  8
SAPA_PROFIL
 10
19.100531420728341
 20
106.2858107113541
 30
0.0
 40
1.000000000000475
 50
45.00000000005614
 51
180.0000000000521
  0
LINE
  5
2389
  8
SAPA_PROFIL
 10
18.100531420727862
 20
106.28581071135319
 30
0.0
 11
18.100531420727862
 21
103.98285147034009
 31
0.0
  0
ARC
  5
238A
  8
SAPA_PROFIL
 10
18.000555420727419
 20
103.7000002737296
 30
0.0
 40
0.3000000000001926
 50
359.99999999994299
 51
70.533641000623831
  0
LINE
  5
238B
  8
SAPA_PROFIL
 10
18.300555420727619
 20
103.7000002737293
 30
0.0
 11
18.300555420727619
 21
102.7438693146794
 31
0.0
  0
ARC
  5
238C
  8
SAPA_PROFIL
 10
18.000555420733061
 20
102.743869314688
 30
0.0
 40
0.2999999999945544
 50
305.62006975474691
 51
359.99999999835262
  0
ARC
  5
238D
  8
SAPA_PROFIL
 10
18.350000070767059
 20
102.25613123273681
 30
0.0
 40
0.3000000000244478
 50
125.6200697521241
 51
179.9999999921834
  0
LINE
  5
238E
  8
SAPA_PROFIL
 10
18.050000070742609
 20
102.2561312327777
 30
0.0
 11
18.050000070788091
 21
101.50000027405601
 31
0.0
  0
ARC
  5
238F
  8
SAPA_PROFIL
 10
19.050000070788091
 20
101.50000027405601
 30
0.0
 40
1.0
 50
180.0
 51
269.99999999593541
  0
LINE
  5
2390
  8
SAPA_PROFIL
 10
19.05000007071715
 20
100.50000027405601
 30
0.0
 11
21.550000070946339
 21
100.5000002738777
 31
0.0
  0
ARC
  5
2391
  8
SAPA_PROFIL
 10
21.550000070797179
 20
98.500000273877731
 30
0.0
 40
2.0
 50
270.0
 51
89.999999995726967
  0
LINE
  5
2392
  8
SAPA_PROFIL
 10
21.550000070797179
 20
96.500000273877745
 30
0.0
 11
13.55000007079718
 21
96.500000273877745
 31
0.0
  0
ARC
  5
2393
  8
SAPA_PROFIL
 10
13.55000007079536
 20
98.500000273875926
 30
0.0
 40
1.999999999998181
 50
179.99999999963521
 51
270.00000000005213
  0
LINE
  5
2394
  8
SAPA_PROFIL
 10
11.55000007079718
 20
98.500000273888645
 30
0.0
 11
11.55000007081537
 21
100.20000027406761
 31
0.0
  0
ARC
  5
2395
  8
SAPA_PROFIL
 10
11.850000070816369
 20
100.200000274055
 30
0.0
 40
0.3000000000009972
 50
89.999999997897618
 51
179.9999999975872
  0
LINE
  5
2396
  8
SAPA_PROFIL
 10
11.850000070827379
 20
100.50000027405601
 30
0.0
 11
12.75000007081792
 21
100.5000002740632
 31
0.0
  0
ARC
  5
2397
  8
SAPA_PROFIL
 10
12.75000007082155
 20
100.8000002740698
 30
0.0
 40
0.3000000000065484
 50
269.99999999930589
 51
359.9999999993052
  0
LINE
  5
2398
  8
SAPA_PROFIL
 10
13.0500000708281
 20
100.80000027406609
 30
0.0
 11
13.0500000708281
 21
101.20000027406761
 31
0.0
  0
ARC
  5
2399
  8
SAPA_PROFIL
 10
12.75000007081792
 20
101.20000027406761
 30
0.0
 40
0.3000000000101846
 50
0.0
 51
90.000000000000327
  0
LINE
  5
239A
  8
SAPA_PROFIL
 10
12.75000007081792
 20
101.50000027407781
 30
0.0
 11
10.35000007080737
 21
101.5000002740596
 31
0.0
  0
ARC
  5
239B
  8
SAPA_PROFIL
 10
10.35000007080828
 20
101.2000002740576
 30
0.0
 40
0.3000000000020009
 50
90.000000000173699
 51
179.99999999808929
  0
LINE
  5
239C
  8
SAPA_PROFIL
 10
10.05000007080627
 20
101.20000027406761
 30
0.0
 11
10.05000007080627
 21
97.000000274056006
 31
0.0
  0
ARC
  5
239D
  8
SAPA_PROFIL
 10
7.0500000708071848
 20
97.000000274065997
 30
0.0
 40
2.9999999999990909
 50
269.99999999980901
 51
359.99999999980889
  0
LINE
  5
239E
  8
SAPA_PROFIL
 10
7.0500000707971822
 20
94.000000274066906
 30
0.0
 11
2.0500000708062771
 21
94.000000274066906
 31
0.0
  0
ARC
  5
239F
  8
SAPA_PROFIL
 10
2.050000070800424
 20
224.00000027411409
 30
0.0
 40
130.00000000004721
 50
263.60079701454492
 51
270.0000000000025
  0
ARC
  5
23A0
  8
SAPA_PROFIL
 10
-12.349999928456031
 20
95.604984795108606
 30
0.0
 40
0.8000000006948486
 50
183.1519705278468
 51
263.6007969666386
  0
ARC
  5
23A1
  8
SAPA_PROFIL
 10
-13.34848713614319
 20
95.550000274790975
 30
0.0
 40
0.1999999999998857
 50
3.1519705748499272
 51
89.999999999759808
  0
LINE
  5
23A2
  8
SAPA_PROFIL
 10
-13.348487136142349
 20
95.750000274790864
 30
0.0
 11
-14.24999992920209
 21
95.750000274790864
 31
0.0
  0
ARC
  5
23A3
  8
SAPA_PROFIL
 10
-14.24999992920028
 20
95.550000274791955
 30
0.0
 40
0.1999999999989086
 50
90.000000000519066
 51
180.0000000036477
  0
LINE
  5
23A4
  8
SAPA_PROFIL
 10
-14.44999992919918
 20
95.550000274779208
 30
0.0
 11
-14.449999929211909
 21
95.323941206308291
 31
0.0
  0
ARC
  5
23A5
  8
SAPA_PROFIL
 10
-12.449999929210041
 20
95.323941206328456
 30
0.0
 40
2.0000000000018701
 50
180.0000000005777
 51
263.49549990594022
  0
ARC
  5
23A6
  8
SAPA_PROFIL
 10
2.050000069891794
 20
222.50000026966299
 30
0.0
 40
129.9999999955281
 50
263.49549990616089
 51
263.81965850480969
  0
ARC
  5
23A7
  8
SAPA_PROFIL
 10
-12.05323075283035
 20
92.26137742982533
 30
0.0
 40
1.0000000001072931
 50
15.095950332812571
 51
83.819658499879793
  0
ARC
  5
23A8
  8
SAPA_PROFIL
 10
-59.362291756765657
 20
79.50000027405531
 30
0.0
 40
49.999999999963222
 50
346.78979035242469
 51
15.095950340055539
  0
ARC
  5
23A9
  8
SAPA_PROFIL
 10
-0.9499999292122076
 20
65.788539248756649
 30
0.0
 40
9.9999999999997051
 50
166.78979035279059
 51
179.99999999994751
  0
LINE
  5
23AA
  8
SAPA_PROFIL
 10
-10.949999929211909
 20
65.788539248765801
 30
0.0
 11
-10.949999929211909
 21
65.000000274055992
 31
0.0
  0
ARC
  5
23AB
  8
SAPA_PROFIL
 10
-9.9499999292119128
 20
65.000000274055992
 30
0.0
 40
1.0
 50
180.0
 51
270.0
  0
LINE
  5
23AC
  8
SAPA_PROFIL
 10
-9.9499999292119128
 20
64.000000274055992
 30
0.0
 11
-6.9499999292119119
 21
64.000000274055992
 31
0.0
  0
ARC
  5
23AD
  8
SAPA_PROFIL
 10
-6.9499999292119119
 20
65.000000274055992
 30
0.0
 40
1.0
 50
270.0
 51
0.0
  0
ARC
  5
23AE
  8
SAPA_PROFIL
 10
64.050000070857209
 20
65.00000027556257
 30
0.0
 40
1.0
 50
270.0
 51
0.0
  0
LINE
  5
23AF
  8
SAPA_PROFIL
 10
64.050000070857209
 20
64.00000027556257
 30
0.0
 11
61.050000070877211
 21
64.00000027556257
 31
0.0
  0
ARC
  5
23B0
  8
SAPA_PROFIL
 10
61.050000070877211
 20
65.000000275569846
 30
0.0
 40
1.0000000000072751
 50
180.0000000004168
 51
270.0
  0
LINE
  5
23B1
  8
SAPA_PROFIL
 10
60.050000070869942
 20
65.00000027556257
 30
0.0
 11
60.050000070877218
 21
65.788539250170516
 31
0.0
  0
ARC
  5
23B2
  8
SAPA_PROFIL
 10
70.050000070876763
 20
65.788539250240049
 30
0.0
 40
9.9999999999995453
 50
166.78979035276771
 51
180.00000000039839
  0
ARC
  5
23B3
  8
SAPA_PROFIL
 10
11.637708243287859
 20
79.500000275566293
 30
0.0
 40
50.000000000004199
 50
346.78979035240781
 51
12.425791910996439
  0
ARC
  5
23B4
  8
SAPA_PROFIL
 10
57.536757470156658
 20
89.613223306310871
 30
0.0
 40
3.000000000003058
 50
12.42579191094007
 51
90.694185080953787
  0
ARC
  5
23B5
  8
SAPA_PROFIL
 10
52.050000070866048
 20
224.0000002754355
 30
0.0
 40
131.49999999999289
 50
270.00000000000011
 51
272.37547544882273
  0
LINE
  5
23B6
  8
SAPA_PROFIL
 10
52.050000070866297
 20
92.500000275442517
 30
0.0
 11
39.050000070886313
 21
92.500000275831781
 31
0.0
  0
ARC
  5
23B7
  8
SAPA_PROFIL
 10
39.050000070886313
 20
90.500000275831795
 30
0.0
 40
2.0
 50
90.0
 51
180.0
  0
LINE
  5
23B8
  8
SAPA_PROFIL
 10
37.050000070886313
 20
90.500000275831795
 30
0.0
 11
37.050000070886313
 21
89.000000275329725
 31
0.0
  0
ARC
  5
23B9
  8
SAPA_PROFIL
 10
35.55000007088632
 20
89.000000275329725
 30
0.0
 40
1.5
 50
270.0
 51
0.0
  0
LINE
  5
23BA
  8
SAPA_PROFIL
 10
35.55000007088632
 20
87.500000275329754
 30
0.0
 11
18.5500000708372
 21
87.500000275329754
 31
0.0
  0
ARC
  5
23BB
  8
SAPA_PROFIL
 10
18.5500000708372
 20
89.000000275329725
 30
0.0
 40
1.5
 50
180.0
 51
270.0
  0
LINE
  5
23BC
  8
SAPA_PROFIL
 10
17.0500000708372
 20
89.000000275329725
 30
0.0
 11
17.0500000708372
 21
91.500000275329725
 31
0.0
  0
ARC
  5
23BD
  8
SAPA_PROFIL
 10
17.5500000708372
 20
91.500000275329725
 30
0.0
 40
0.5
 50
90.0
 51
180.0
  0
LINE
  5
23BE
  8
SAPA_PROFIL
 10
17.5500000708372
 20
92.000000275329739
 30
0.0
 11
19.3000000708372
 21
92.000000275329739
 31
0.0
  0
ARC
  5
23BF
  8
SAPA_PROFIL
 10
19.3000000708372
 20
91.500000275329725
 30
0.0
 40
0.5
 50
0.0
 51
90.0
  0
LINE
  5
23C0
  8
SAPA_PROFIL
 10
19.8000000708372
 20
91.500000275329725
 30
0.0
 11
19.8000000708372
 21
91.200000275330467
 31
0.0
  0
ARC
  5
23C1
  8
SAPA_PROFIL
 10
19.600000070836469
 20
91.200000275330467
 30
0.0
 40
0.2000000000007276
 50
270.0
 51
0.0
  0
LINE
  5
23C2
  8
SAPA_PROFIL
 10
19.600000070836469
 20
91.000000275329739
 30
0.0
 11
18.750000070836109
 21
91.000000275329739
 31
0.0
  0
ARC
  5
23C3
  8
SAPA_PROFIL
 10
18.750000070835199
 20
90.80000027533174
 30
0.0
 40
0.1999999999979991
 50
89.999999999739444
 51
179.9999999997394
  0
LINE
  5
23C4
  8
SAPA_PROFIL
 10
18.5500000708372
 20
90.800000275332636
 30
0.0
 11
18.5500000708372
 21
89.800000275332636
 31
0.0
  0
ARC
  5
23C5
  8
SAPA_PROFIL
 10
19.0500000708372
 20
89.800000275332636
 30
0.0
 40
0.5
 50
180.0
 51
270.0
  0
LINE
  5
23C6
  8
SAPA_PROFIL
 10
19.0500000708372
 20
89.300000275332664
 30
0.0
 11
25.0500000708372
 21
89.300000275332664
 31
0.0
  0
ARC
  5
23C7
  8
SAPA_PROFIL
 10
25.0500000708372
 20
89.800000275332636
 30
0.0
 40
0.5
 50
270.0
 51
0.0
  0
LINE
  5
23C8
  8
SAPA_PROFIL
 10
25.5500000708372
 20
89.800000275332636
 30
0.0
 11
25.5500000708372
 21
90.800000275332636
 31
0.0
  0
ARC
  5
23C9
  8
SAPA_PROFIL
 10
25.350000070838291
 20
90.800000275330831
 30
0.0
 40
0.1999999999989086
 50
0.0000000005211021
 51
90.000000000521084
  0
LINE
  5
23CA
  8
SAPA_PROFIL
 10
25.350000070836479
 20
91.000000275329739
 30
0.0
 11
24.500000070836109
 21
91.000000275329739
 31
0.0
  0
ARC
  5
23CB
  8
SAPA_PROFIL
 10
24.500000070836109
 20
91.200000275330467
 30
0.0
 40
0.2000000000007276
 50
180.0
 51
270.0
  0
LINE
  5
23CC
  8
SAPA_PROFIL
 10
24.300000070835381
 20
91.200000275330467
 30
0.0
 11
24.3000000708372
 21
91.500000275329725
 31
0.0
  0
ARC
  5
23CD
  8
SAPA_PROFIL
 10
24.8000000708372
 20
91.500000275329725
 30
0.0
 40
0.5
 50
90.0
 51
180.0
  0
LINE
  5
23CE
  8
SAPA_PROFIL
 10
24.8000000708372
 20
92.000000275329739
 30
0.0
 11
27.8000000708372
 21
92.000000275329739
 31
0.0
  0
ARC
  5
23CF
  8
SAPA_PROFIL
 10
27.8000000708372
 20
91.500000275329725
 30
0.0
 40
0.5
 50
0.0
 51
90.0
  0
LINE
  5
23D0
  8
SAPA_PROFIL
 10
28.3000000708372
 20
91.500000275329725
 30
0.0
 11
28.300000070846298
 21
91.200000275341367
 31
0.0
  0
ARC
  5
23D1
  8
SAPA_PROFIL
 10
28.100000070847379
 20
91.200000275341367
 30
0.0
 40
0.1999999999989086
 50
270.0
 51
0.0
  0
LINE
  5
23D2
  8
SAPA_PROFIL
 10
28.100000070847379
 20
91.000000275342487
 30
0.0
 11
27.250000070847019
 21
91.000000275329739
 31
0.0
  0
ARC
  5
23D3
  8
SAPA_PROFIL
 10
27.250000070845211
 20
90.800000275330831
 30
0.0
 40
0.1999999999989086
 50
89.999999999478902
 51
179.99999999947889
  0
LINE
  5
23D4
  8
SAPA_PROFIL
 10
27.050000070846298
 20
90.800000275332636
 30
0.0
 11
27.050000070846298
 21
89.800000275332636
 31
0.0
  0
ARC
  5
23D5
  8
SAPA_PROFIL
 10
27.550000070846298
 20
89.800000275332636
 30
0.0
 40
0.5
 50
180.0
 51
270.0
  0
LINE
  5
23D6
  8
SAPA_PROFIL
 10
27.550000070846298
 20
89.300000275332664
 30
0.0
 11
33.550000070846302
 21
89.300000275332664
 31
0.0
  0
ARC
  5
23D7
  8
SAPA_PROFIL
 10
33.550000070846302
 20
89.800000275332636
 30
0.0
 40
0.5
 50
270.0
 51
0.0
  0
LINE
  5
23D8
  8
SAPA_PROFIL
 10
34.050000070846302
 20
89.800000275332636
 30
0.0
 11
34.050000070844483
 21
90.800000275332636
 31
0.0
  0
ARC
  5
23D9
  8
SAPA_PROFIL
 10
33.850000070847393
 20
90.800000275332636
 30
0.0
 40
0.1999999999970896
 50
0.0
 51
90.0
  0
LINE
  5
23DA
  8
SAPA_PROFIL
 10
33.850000070847393
 20
91.000000275329739
 30
0.0
 11
33.000000070847022
 21
91.000000275329739
 31
0.0
  0
ARC
  5
23DB
  8
SAPA_PROFIL
 10
33.000000070847022
 20
91.200000275330467
 30
0.0
 40
0.2000000000007276
 50
180.0
 51
270.0
  0
LINE
  5
23DC
  8
SAPA_PROFIL
 10
32.800000070846302
 20
91.200000275330467
 30
0.0
 11
32.800000070846302
 21
91.500000275329725
 31
0.0
  0
ARC
  5
23DD
  8
SAPA_PROFIL
 10
33.300000070846302
 20
91.500000275329725
 30
0.0
 40
0.5
 50
90.0
 51
180.0
  0
LINE
  5
23DE
  8
SAPA_PROFIL
 10
33.300000070846302
 20
92.000000275329739
 30
0.0
 11
34.050000070866311
 21
92.000000275329739
 31
0.0
  0
ARC
  5
23DF
  8
SAPA_PROFIL
 10
34.050000070866311
 20
94.000000275329725
 30
0.0
 40
2.0
 50
270.0
 51
0.0
  0
LINE
  5
23E0
  8
SAPA_PROFIL
 10
36.050000070866297
 20
94.000000275329725
 30
0.0
 11
36.050000070866297
 21
102.2561312336222
 31
0.0
  0
ARC
  5
23E1
  8
SAPA_PROFIL
 10
36.350000070861022
 20
102.25613123363109
 30
0.0
 40
0.2999999999947178
 50
125.62006976074601
 51
180.00000000169081
  0
ARC
  5
23E2
  8
SAPA_PROFIL
 10
36.000555420795699
 20
102.7438693155312
 30
0.0
 40
0.3000000000010449
 50
305.62006975666452
 51
359.99999999998101
  0
LINE
  5
23E3
  8
SAPA_PROFIL
 10
36.300555420796741
 20
102.7438693155311
 30
0.0
 11
36.300555420805843
 21
103.7000002745701
 31
0.0
  0
ARC
  5
23E4
  8
SAPA_PROFIL
 10
36.000555420795727
 20
103.7000002745702
 30
0.0
 40
0.3000000000101082
 50
359.99999999997561
 51
80.513483327049926
  0
LINE
  5
23E5
  8
SAPA_PROFIL
 10
36.050000070866297
 20
103.9958975989675
 30
0.0
 11
36.05000007063984
 21
106.41154223400071
 31
0.0
  0
ARC
  5
23E6
  8
SAPA_PROFIL
 10
36.350000070639979
 20
106.41154223400071
 30
0.0
 40
0.3000000000001393
 50
160.00000000024809
 51
179.99999999999719
  0
LINE
  5
23E7
  8
SAPA_PROFIL
 10
36.06809228440364
 20
106.5141482769973
 30
0.0
 11
36.587606352079213
 21
107.9415014470425
 31
0.0
  0
ARC
  5
23E8
  8
SAPA_PROFIL
 10
36.869514138320049
 20
107.8388954040383
 30
0.0
 40
0.3000000000070224
 50
69.999999999740069
 51
159.9999999991467
  0
LINE
  5
23E9
  8
SAPA_PROFIL
 10
36.972120181321429
 20
108.1208031902802
 30
0.0
 11
37.160058705470078
 21
108.0523991616089
 31
0.0
  0
ARC
  5
23EA
  8
SAPA_PROFIL
 10
37.05745266248055
 20
107.77049137537701
 30
0.0
 40
0.2999999999935905
 50
340.00000000120002
 51
70.000000001215454
  0
LINE
  5
23EB
  8
SAPA_PROFIL
 10
37.339360448712462
 20
107.6678853323874
 30
0.0
 11
36.963138291045773
 21
106.6342234495182
 31
0.0
  0
ARC
  5
23EC
  8
SAPA_PROFIL
 10
37.245046077283448
 20
106.53161740652639
 30
0.0
 40
0.2999999999997788
 50
160.000000001182
 51
250.0000000023206
  0
LINE
  5
23ED
  8
SAPA_PROFIL
 10
37.142440034297238
 20
106.24970962028669
 30
0.0
 11
38.952630113635792
 21
105.5908543130508
 31
0.0
  0
ARC
  5
23EE
  8
SAPA_PROFIL
 10
38.850024070639023
 20
105.30894652681449
 30
0.0
 40
0.3000000000002223
 50
0.000000000035283
 51
70.000000000203443
  0
LINE
  5
23EF
  8
SAPA_PROFIL
 10
39.150024070639233
 20
105.30894652681469
 30
0.0
 11
39.150024070639233
 21
104.8892307589954
 31
0.0
  0
ARC
  5
23F0
  8
SAPA_PROFIL
 10
38.850024071079702
 20
104.8892307588455
 30
0.0
 40
0.2999999995595388
 50
330.0000000285915
 51
0.0000000286253314
  0
LINE
  5
23F1
  8
SAPA_PROFIL
 10
39.109831691908418
 20
104.73923075919539
 30
0.0
 11
38.250024070684162
 21
103.250000274706
 31
0.0
  0
LINE
  5
23F2
  8
SAPA_PROFIL
 10
38.250024070684162
 20
103.250000274706
 30
0.0
 11
38.250012070657363
 21
102.80000027470599
 31
0.0
  0
ARC
  5
23F3
  8
SAPA_PROFIL
 10
38.55001207065721
 20
102.8000002746879
 30
0.0
 40
0.2999999999998408
 50
179.9999999965477
 51
269.9999999965911
  0
LINE
  5
23F4
  8
SAPA_PROFIL
 10
38.550012070639347
 20
102.50000027468811
 30
0.0
 11
42.150024070639688
 21
102.5000002744725
 31
0.0
  0
ARC
  5
23F5
  8
SAPA_PROFIL
 10
42.150024070657757
 20
102.8000002744724
 30
0.0
 40
0.2999999999998408
 50
269.99999999654767
 51
359.9999999965911
  0
LINE
  5
23F6
  8
SAPA_PROFIL
 10
42.450024070657612
 20
102.8000002744545
 30
0.0
 11
42.450024070684428
 21
103.25000027445461
 31
0.0
  0
LINE
  5
23F7
  8
SAPA_PROFIL
 10
42.450024070684428
 20
103.25000027445461
 30
0.0
 11
41.590199333204623
 21
104.7392604055803
 31
0.0
  0
ARC
  5
23F8
  8
SAPA_PROFIL
 10
41.850006954348459
 20
104.8892604055644
 30
0.0
 40
0.299999999999395
 50
180.00364686396489
 51
209.99999999655171
  0
LINE
  5
23F9
  8
SAPA_PROFIL
 10
41.55000695495675
 20
104.8892413106293
 30
0.0
 11
41.550002944398891
 21
105.0000002745803
 31
0.0
  0
LINE
  5
23FA
  8
SAPA_PROFIL
 10
41.550002944398891
 20
105.0000002745803
 30
0.0
 11
43.550000070846288
 21
105.0000002745803
 31
0.0
  0
ARC
  5
23FB
  8
SAPA_PROFIL
 10
43.550000070856299
 20
104.5000002745703
 30
0.0
 40
0.5000000000100046
 50
0.0000000011464246
 51
90.000000001146418
  0
LINE
  5
23FC
  8
SAPA_PROFIL
 10
44.050000070866297
 20
104.5000002745803
 30
0.0
 11
44.050000070877211
 21
97.000000275842694
 31
0.0
  0
ARC
  5
23FD
  8
SAPA_PROFIL
 10
47.050000070877211
 20
97.000000275831795
 30
0.0
 40
3.0
 50
179.9999999997915
 51
270.0
  0
LINE
  5
23FE
  8
SAPA_PROFIL
 10
47.050000070877211
 20
94.000000275831781
 30
0.0
 11
52.050000070866297
 21
94.00000027543706
 31
0.0
  0
ARC
  5
23FF
  8
SAPA_PROFIL
 10
52.050000070867959
 20
224.00000027543999
 30
0.0
 40
130.0000000000029
 50
269.99999999999932
 51
276.39920298546338
  0
ARC
  5
2400
  8
SAPA_PROFIL
 10
66.450000070138032
 20
95.604984796472905
 30
0.0
 40
0.8000000006872367
 50
276.39920303343172
 51
356.84802947215172
  0
ARC
  5
2401
  8
SAPA_PROFIL
 10
67.448487277816795
 20
95.550000276151223
 30
0.0
 40
0.1999999999993357
 50
89.999999997406704
 51
176.8480294238652
  0
LINE
  5
2402
  8
SAPA_PROFIL
 10
67.448487277825848
 20
95.750000276150558
 30
0.0
 11
68.350000070887404
 21
95.750000276151923
 31
0.0
  0
ARC
  5
2403
  8
SAPA_PROFIL
 10
68.350000070887404
 20
95.550000276151195
 30
0.0
 40
0.2000000000007276
 50
359.99999999687338
 51
90.0
  0
LINE
  5
2404
  8
SAPA_PROFIL
 10
68.550000070888132
 20
95.550000276140281
 30
0.0
 11
68.550000070877203
 21
95.314336738251086
 31
0.0
  0
ARC
  5
2405
  8
SAPA_PROFIL
 10
66.55000007075715
 20
95.314336738389315
 30
0.0
 40
2.0000000001200671
 50
276.42883872161582
 51
359.99999999604
  0
ARC
  5
2406
  8
SAPA_PROFIL
 10
52.050000070283197
 20
224.0000002748657
 30
0.0
 40
131.4999999994906
 50
276.1090606045293
 51
276.42883872507832
  0
ARC
  5
2407
  8
SAPA_PROFIL
 10
66.150823910934648
 20
92.252450897829902
 30
0.0
 40
0.9999999999040659
 50
96.109060604148027
 51
164.914860263382
  0
ARC
  5
2408
  8
SAPA_PROFIL
 10
113.4622918984666
 20
79.50000027554546
 30
0.0
 40
49.999999999996568
 50
164.91486026714031
 51
193.2102096475684
  0
ARC
  5
2409
  8
SAPA_PROFIL
 10
55.05000007087677
 20
65.788539250272592
 30
0.0
 40
9.9999999999959091
 50
359.99999999999881
 51
13.210209647052331
  0
LINE
  5
240A
  8
SAPA_PROFIL
 10
65.05000007087267
 20
65.788539250272379
 30
0.0
 11
65.050000070857209
 21
65.00000027556257
 31
0.0
  0
ARC
  5
240B
  8
SAPA_PROFIL
 62
     4
 10
42.591519988047949
 20
139.41342279110651
 30
0.0
 40
1.3416252492694789
 50
151.9755812434785
 51
179.20443003929921
  0
LINE
  5
240C
  8
SAPA_PROFIL
 62
     4
 10
41.407203747672717
 20
140.04378249180189
 30
0.0
 11
42.400024070701988
 21
141.76339773407611
 31
0.0
  0
LINE
  5
240D
  8
SAPA_PROFIL
 62
     4
 10
42.400024070701988
 20
141.76339773407611
 30
0.0
 11
42.400024070701988
 21
142.2000002744544
 31
0.0
  0
ARC
  5
240E
  8
SAPA_PROFIL
 62
     4
 10
42.150024070701988
 20
142.2000002744544
 30
0.0
 40
0.25
 50
0.0
 51
90.0
  0
LINE
  5
240F
  8
SAPA_PROFIL
 62
     4
 10
42.150024070701988
 20
142.4500002744544
 30
0.0
 11
38.55001207070211
 21
142.4500002744546
 31
0.0
  0
ARC
  5
2410
  8
SAPA_PROFIL
 62
     4
 10
38.550012070702103
 20
142.2000002744546
 30
0.0
 40
0.25
 50
89.999999999998366
 51
180.0
  0
LINE
  5
2411
  8
SAPA_PROFIL
 62
     4
 10
38.30001207070211
 20
142.2000002744546
 30
0.0
 11
38.300023713437561
 21
141.76339835287601
 31
0.0
  0
LINE
  5
2412
  8
SAPA_PROFIL
 62
     4
 10
38.300023713437561
 20
141.76339835287601
 30
0.0
 11
39.292844393727712
 21
140.04378249180871
 31
0.0
  0
ARC
  5
2413
  8
SAPA_PROFIL
 62
     4
 10
38.172619289233928
 20
139.429809741649
 30
0.0
 40
1.2774454284535071
 50
0.4570690070745953
 51
28.726257381928871
  0
LINE
  5
2414
  8
SAPA_PROFIL
 62
     4
 10
39.45002407070217
 20
139.44000027445441
 30
0.0
 11
39.45002407070217
 21
105.5600002744545
 31
0.0
  0
ARC
  5
2415
  8
SAPA_PROFIL
 62
     4
 10
38.172619289233943
 20
105.57019080725991
 30
0.0
 40
1.2774454284535
 50
331.27374261807103
 51
359.54293099292539
  0
LINE
  5
2416
  8
SAPA_PROFIL
 62
     4
 10
39.292844393727712
 20
104.9562180571001
 30
0.0
 11
38.300023713437561
 21
103.2366021960329
 31
0.0
  0
LINE
  5
2417
  8
SAPA_PROFIL
 62
     4
 10
38.300023713437561
 20
103.2366021960329
 30
0.0
 11
38.30001207070211
 21
102.80000027445431
 31
0.0
  0
ARC
  5
2418
  8
SAPA_PROFIL
 62
     4
 10
38.550012070702103
 20
102.80000027445431
 30
0.0
 40
0.2499999999999929
 50
180.0
 51
270.00000000000171
  0
LINE
  5
2419
  8
SAPA_PROFIL
 62
     4
 10
38.55001207070211
 20
102.55000027445431
 30
0.0
 11
42.150024070701988
 21
102.5500002744545
 31
0.0
  0
ARC
  5
241A
  8
SAPA_PROFIL
 62
     4
 10
42.150024070701988
 20
102.8000002744545
 30
0.0
 40
0.25
 50
270.0
 51
0.0
  0
LINE
  5
241B
  8
SAPA_PROFIL
 62
     4
 10
42.400024070701988
 20
102.8000002744545
 30
0.0
 11
42.400024070701988
 21
103.23660281483281
 31
0.0
  0
LINE
  5
241C
  8
SAPA_PROFIL
 62
     4
 10
42.400024070701988
 20
103.23660281483281
 30
0.0
 11
41.407203747672717
 21
104.9562180571069
 31
0.0
  0
ARC
  5
241D
  8
SAPA_PROFIL
 62
     4
 10
42.591519988047949
 20
105.5865777578024
 30
0.0
 40
1.341625249269482
 50
180.7955699607013
 51
208.02441875652201
  0
LINE
  5
241E
  8
SAPA_PROFIL
 62
     4
 10
41.250024070702352
 20
105.56794946688539
 30
0.0
 11
41.250024070702352
 21
139.43205108202341
 31
0.0
  0
LINE
  5
241F
  8
SAPA_PROFIL
 10
35.55000007088632
 20
157.5000002735793
 30
0.0
 11
18.5500000708372
 21
157.5000002735793
 31
0.0
  0
ARC
  5
2420
  8
SAPA_PROFIL
 10
18.550000070837189
 20
156.0000002735793
 30
0.0
 40
1.5
 50
89.999999999999872
 51
180.0
  0
LINE
  5
2421
  8
SAPA_PROFIL
 10
17.0500000708372
 20
156.0000002735793
 30
0.0
 11
17.0500000708372
 21
153.5000002735793
 31
0.0
  0
ARC
  5
2422
  8
SAPA_PROFIL
 10
17.5500000708372
 20
153.5000002735793
 30
0.0
 40
0.5
 50
180.0
 51
270.0
  0
LINE
  5
2423
  8
SAPA_PROFIL
 10
17.5500000708372
 20
153.0000002735793
 30
0.0
 11
19.3000000708372
 21
153.0000002735793
 31
0.0
  0
ARC
  5
2424
  8
SAPA_PROFIL
 10
19.3000000708372
 20
153.5000002735793
 30
0.0
 40
0.5
 50
270.0
 51
0.0
  0
LINE
  5
2425
  8
SAPA_PROFIL
 10
19.8000000708372
 20
153.5000002735793
 30
0.0
 11
19.8000000708372
 21
153.8000002735786
 31
0.0
  0
ARC
  5
2426
  8
SAPA_PROFIL
 10
19.600000070836408
 20
153.8000002735786
 30
0.0
 40
0.2000000000007844
 50
359.99999999998369
 51
89.999999999983714
  0
LINE
  5
2427
  8
SAPA_PROFIL
 10
19.600000070836469
 20
154.00000027357939
 30
0.0
 11
18.750000070836109
 21
154.0000002735793
 31
0.0
  0
ARC
  5
2428
  8
SAPA_PROFIL
 10
18.750000070835188
 20
154.2000002735773
 30
0.0
 40
0.1999999999979991
 50
180.00000000026051
 51
270.00000000026159
  0
LINE
  5
2429
  8
SAPA_PROFIL
 10
18.5500000708372
 20
154.20000027357639
 30
0.0
 11
18.5500000708372
 21
155.20000027357639
 31
0.0
  0
ARC
  5
242A
  8
SAPA_PROFIL
 10
19.0500000708372
 20
155.20000027357639
 30
0.0
 40
0.5
 50
90.0
 51
180.0
  0
LINE
  5
242B
  8
SAPA_PROFIL
 10
19.0500000708372
 20
155.70000027357639
 30
0.0
 11
25.0500000708372
 21
155.70000027357639
 31
0.0
  0
ARC
  5
242C
  8
SAPA_PROFIL
 10
25.0500000708372
 20
155.20000027357639
 30
0.0
 40
0.5
 50
0.0
 51
89.999999999999588
  0
LINE
  5
242D
  8
SAPA_PROFIL
 10
25.5500000708372
 20
155.20000027357639
 30
0.0
 11
25.5500000708372
 21
154.20000027357639
 31
0.0
  0
ARC
  5
242E
  8
SAPA_PROFIL
 10
25.350000070838291
 20
154.20000027357821
 30
0.0
 40
0.1999999999989086
 50
269.99999999947892
 51
359.99999999947892
  0
LINE
  5
242F
  8
SAPA_PROFIL
 10
25.350000070836479
 20
154.0000002735793
 30
0.0
 11
24.500000070836109
 21
154.0000002735793
 31
0.0
  0
ARC
  5
2430
  8
SAPA_PROFIL
 10
24.500000070836109
 20
153.8000002735786
 30
0.0
 40
0.2000000000007276
 50
90.0
 51
180.0
  0
LINE
  5
2431
  8
SAPA_PROFIL
 10
24.300000070835381
 20
153.8000002735786
 30
0.0
 11
24.3000000708372
 21
153.5000002735793
 31
0.0
  0
ARC
  5
2432
  8
SAPA_PROFIL
 10
24.800000070837211
 20
153.5000002735793
 30
0.0
 40
0.5000000000000036
 50
180.0
 51
269.9999999999996
  0
LINE
  5
2433
  8
SAPA_PROFIL
 10
24.8000000708372
 20
153.0000002735793
 30
0.0
 11
27.8000000708372
 21
153.0000002735793
 31
0.0
  0
ARC
  5
2434
  8
SAPA_PROFIL
 10
27.8000000708372
 20
153.5000002735793
 30
0.0
 40
0.5
 50
270.0
 51
0.0
  0
LINE
  5
2435
  8
SAPA_PROFIL
 10
28.3000000708372
 20
153.5000002735793
 30
0.0
 11
28.300000070846298
 21
153.8000002735676
 31
0.0
  0
ARC
  5
2436
  8
SAPA_PROFIL
 10
28.100000070847379
 20
153.8000002735676
 30
0.0
 40
0.1999999999989086
 50
0.0
 51
90.0
  0
LINE
  5
2437
  8
SAPA_PROFIL
 10
28.100000070847379
 20
154.00000027356651
 30
0.0
 11
27.250000070847019
 21
154.0000002735793
 31
0.0
  0
ARC
  5
2438
  8
SAPA_PROFIL
 10
27.250000070845211
 20
154.20000027357821
 30
0.0
 40
0.1999999999989086
 50
180.00000000052111
 51
270.00000000052108
  0
LINE
  5
2439
  8
SAPA_PROFIL
 10
27.050000070846298
 20
154.20000027357639
 30
0.0
 11
27.050000070846298
 21
155.20000027357639
 31
0.0
  0
ARC
  5
243A
  8
SAPA_PROFIL
 10
27.550000070846298
 20
155.20000027357639
 30
0.0
 40
0.5
 50
90.0
 51
180.0
  0
LINE
  5
243B
  8
SAPA_PROFIL
 10
27.550000070846298
 20
155.70000027357639
 30
0.0
 11
33.550000070846302
 21
155.70000027357639
 31
0.0
  0
ARC
  5
243C
  8
SAPA_PROFIL
 10
33.550000070846302
 20
155.20000027357639
 30
0.0
 40
0.5
 50
0.0
 51
90.0
  0
LINE
  5
243D
  8
SAPA_PROFIL
 10
34.050000070846302
 20
155.20000027357639
 30
0.0
 11
34.050000070844483
 21
154.20000027357639
 31
0.0
  0
ARC
  5
243E
  8
SAPA_PROFIL
 10
33.850000070847393
 20
154.20000027357639
 30
0.0
 40
0.1999999999970896
 50
270.0
 51
0.0
  0
LINE
  5
243F
  8
SAPA_PROFIL
 10
33.850000070847393
 20
154.0000002735793
 30
0.0
 11
33.000000070847022
 21
154.0000002735793
 31
0.0
  0
ARC
  5
2440
  8
SAPA_PROFIL
 10
33.000000070847022
 20
153.8000002735786
 30
0.0
 40
0.2000000000007276
 50
90.0
 51
180.0
  0
LINE
  5
2441
  8
SAPA_PROFIL
 10
32.800000070846302
 20
153.8000002735786
 30
0.0
 11
32.800000070846302
 21
153.5000002735793
 31
0.0
  0
ARC
  5
2442
  8
SAPA_PROFIL
 10
33.300000070846302
 20
153.5000002735793
 30
0.0
 40
0.5
 50
180.0
 51
270.0
  0
LINE
  5
2443
  8
SAPA_PROFIL
 10
33.300000070846302
 20
153.0000002735793
 30
0.0
 11
34.050000070866311
 21
153.0000002735793
 31
0.0
  0
ARC
  5
2444
  8
SAPA_PROFIL
 10
34.050000070866361
 20
151.0000002735793
 30
0.0
 40
1.9999999999999429
 50
0.0000000000016284
 51
90.000000000001606
  0
LINE
  5
2445
  8
SAPA_PROFIL
 10
36.050000070866297
 20
151.00000027357939
 30
0.0
 11
36.050000070866297
 21
142.7438693152869
 31
0.0
  0
ARC
  5
2446
  8
SAPA_PROFIL
 10
36.350000070861057
 20
142.74386931527781
 30
0.0
 40
0.2999999999947533
 50
179.99999999826841
 51
234.37993023925009
  0
ARC
  5
2447
  8
SAPA_PROFIL
 10
36.000555420795727
 20
142.25613123337769
 30
0.0
 40
0.3000000000010168
 50
0.0000000000597096
 51
54.37993024333835
  0
LINE
  5
2448
  8
SAPA_PROFIL
 10
36.300555420796741
 20
142.256131233378
 30
0.0
 11
36.300555420805843
 21
141.300000274339
 31
0.0
  0
ARC
  5
2449
  8
SAPA_PROFIL
 10
36.000555420795607
 20
141.300000274339
 30
0.0
 40
0.3000000000102219
 50
279.48651667296838
 51
0.0000000000054281
  0
LINE
  5
244A
  8
SAPA_PROFIL
 10
36.050000070866297
 20
141.0041029499416
 30
0.0
 11
36.05000007063984
 21
138.58845831490839
 31
0.0
  0
ARC
  5
244B
  8
SAPA_PROFIL
 10
36.350000070639787
 20
138.58845831490839
 30
0.0
 40
0.2999999999999545
 50
180.0
 51
199.9999999997614
  0
LINE
  5
244C
  8
SAPA_PROFIL
 10
36.06809228440364
 20
138.48585227191191
 30
0.0
 11
36.587606352079213
 21
137.05849910186629
 31
0.0
  0
ARC
  5
244D
  8
SAPA_PROFIL
 10
36.869514138320007
 20
137.1611051448709
 30
0.0
 40
0.3000000000070795
 50
200.00000000090699
 51
290.00000000026392
  0
LINE
  5
244E
  8
SAPA_PROFIL
 10
36.972120181321429
 20
136.87919735862889
 30
0.0
 11
37.160058705470078
 21
136.9476013872999
 31
0.0
  0
ARC
  5
244F
  8
SAPA_PROFIL
 10
37.057452662480323
 20
137.22950917353199
 30
0.0
 40
0.2999999999938284
 50
289.99999999881419
 51
19.999999998795321
  0
LINE
  5
2450
  8
SAPA_PROFIL
 10
37.339360448712462
 20
137.33211521652169
 30
0.0
 11
36.963138291045773
 21
138.3657770993909
 31
0.0
  0
ARC
  5
2451
  8
SAPA_PROFIL
 10
37.245046077283092
 20
138.46838314238289
 30
0.0
 40
0.2999999999995015
 50
109.9999999976264
 51
199.99999999887481
  0
LINE
  5
2452
  8
SAPA_PROFIL
 10
37.142440034297238
 20
138.75029092862241
 30
0.0
 11
38.952630113635792
 21
139.40914623585809
 31
0.0
  0
ARC
  5
2453
  8
SAPA_PROFIL
 10
38.850024070639058
 20
139.69105402209439
 30
0.0
 40
0.3000000000001676
 50
289.99999999979173
 51
0.0000000000162844
  0
LINE
  5
2454
  8
SAPA_PROFIL
 10
39.150024070639233
 20
139.69105402209439
 30
0.0
 11
39.150024070639233
 21
140.11076978991369
 31
0.0
  0
ARC
  5
2455
  8
SAPA_PROFIL
 10
38.850024071079353
 20
140.1107697900635
 30
0.0
 40
0.299999999559887
 50
359.99999997139372
 51
29.999999971391759
  0
LINE
  5
2456
  8
SAPA_PROFIL
 10
39.109831691908418
 20
140.26076978971381
 30
0.0
 11
38.250024070684162
 21
141.7500002742031
 31
0.0
  0
LINE
  5
2457
  8
SAPA_PROFIL
 10
38.250024070684162
 20
141.7500002742031
 30
0.0
 11
38.250012070657363
 21
142.20000027420289
 31
0.0
  0
ARC
  5
2458
  8
SAPA_PROFIL
 10
38.550012070657417
 20
142.200000274221
 30
0.0
 40
0.3000000000000611
 50
90.000000003450936
 51
180.0000000034523
  0
LINE
  5
2459
  8
SAPA_PROFIL
 10
38.550012070639347
 20
142.50000027422101
 30
0.0
 11
42.150024070639688
 21
142.50000027443659
 31
0.0
  0
ARC
  5
245A
  8
SAPA_PROFIL
 10
42.15002407065753
 20
142.20000027443649
 30
0.0
 40
0.3000000000000682
 50
0.0000000034088761
 51
90.000000003408886
  0
LINE
  5
245B
  8
SAPA_PROFIL
 10
42.450024070657612
 20
142.2000002744544
 30
0.0
 11
42.450024070684428
 21
141.75000027445429
 31
0.0
  0
LINE
  5
245C
  8
SAPA_PROFIL
 10
42.450024070684428
 20
141.75000027445429
 30
0.0
 11
41.590199333204623
 21
140.2607401433288
 31
0.0
  0
ARC
  5
245D
  8
SAPA_PROFIL
 10
41.850006954349148
 20
140.11074014334449
 30
0.0
 40
0.3000000000000976
 50
150.00000000348189
 51
179.9963531360404
  0
LINE
  5
245E
  8
SAPA_PROFIL
 10
41.55000695495675
 20
140.11075923827951
 30
0.0
 11
41.550002944398891
 21
140.00000027432881
 31
0.0
  0
LINE
  5
245F
  8
SAPA_PROFIL
 10
41.550002944398891
 20
140.00000027432881
 30
0.0
 11
43.550000070846288
 21
140.00000027432881
 31
0.0
  0
ARC
  5
2460
  8
SAPA_PROFIL
 10
43.550000070856299
 20
140.50000027433879
 30
0.0
 40
0.5000000000100046
 50
269.99999999885358
 51
359.99999999885358
  0
LINE
  5
2461
  8
SAPA_PROFIL
 10
44.050000070866297
 20
140.50000027432881
 30
0.0
 11
44.050000070877211
 21
148.00000027306621
 31
0.0
  0
ARC
  5
2462
  8
SAPA_PROFIL
 10
47.050000070877331
 20
148.00000027307721
 30
0.0
 40
3.0000000000001128
 50
90.00000000000216
 51
180.0000000002106
  0
LINE
  5
2463
  8
SAPA_PROFIL
 10
47.050000070877211
 20
151.0000002730774
 30
0.0
 11
52.050000070866297
 21
151.0000002734721
 31
0.0
  0
ARC
  5
2464
  8
SAPA_PROFIL
 10
52.050000070865899
 20
21.000000273468508
 30
0.0
 40
130.00000000000361
 50
83.600797014535686
 51
89.999999999999815
  0
ARC
  5
2465
  8
SAPA_PROFIL
 10
66.450000070138103
 20
149.39501575243611
 30
0.0
 40
0.8000000006871441
 50
3.1519705278424599
 51
83.600796966572759
  0
ARC
  5
2466
  8
SAPA_PROFIL
 10
67.448487277816668
 20
149.45000027275779
 30
0.0
 40
0.1999999999992142
 50
183.1519705761693
 51
270.00000000262992
  0
LINE
  5
2467
  8
SAPA_PROFIL
 10
67.448487277825848
 20
149.2500002727586
 30
0.0
 11
68.350000070887404
 21
149.25000027275721
 31
0.0
  0
ARC
  5
2468
  8
SAPA_PROFIL
 10
68.350000070887404
 20
149.4500002727579
 30
0.0
 40
0.2000000000007276
 50
270.0
 51
0.0000000031266125
  0
LINE
  5
2469
  8
SAPA_PROFIL
 10
68.550000070888132
 20
149.45000027276879
 30
0.0
 11
68.550000070877203
 21
149.68566381065801
 31
0.0
  0
ARC
  5
246A
  8
SAPA_PROFIL
 10
66.55000007075725
 20
149.68566381051971
 30
0.0
 40
2.000000000119968
 50
0.0000000039636327
 51
83.571161278386697
  0
ARC
  5
246B
  8
SAPA_PROFIL
 10
52.050000070242461
 20
21.00000027404332
 30
0.0
 40
131.499999999495
 50
83.571161274904085
 51
83.890939395453017
  0
ARC
  5
246C
  8
SAPA_PROFIL
 10
66.150823910934434
 20
152.747549651079
 30
0.0
 40
0.9999999999038454
 50
195.08513973661641
 51
263.89093939586292
  0
ARC
  5
246D
  8
SAPA_PROFIL
 10
113.4622918984664
 20
165.5000002733635
 30
0.0
 40
49.999999999996369
 50
166.78979035243151
 51
195.08513973285969
  0
ARC
  5
246E
  8
SAPA_PROFIL
 10
55.050000070876841
 20
179.21146129863641
 30
0.0
 40
9.9999999999958362
 50
346.78979035294759
 51
0.0000000000013028
  0
LINE
  5
246F
  8
SAPA_PROFIL
 10
65.05000007087267
 20
179.21146129863669
 30
0.0
 11
65.050000070857209
 21
180.0000002733465
 31
0.0
  0
ARC
  5
2470
  8
SAPA_PROFIL
 10
64.050000070857209
 20
180.0000002733465
 30
0.0
 40
1.0
 50
0.0
 51
90.0
  0
LINE
  5
2471
  8
SAPA_PROFIL
 10
64.050000070857209
 20
181.0000002733465
 30
0.0
 11
61.050000070877211
 21
181.0000002733465
 31
0.0
  0
ARC
  5
2472
  8
SAPA_PROFIL
 10
61.050000070877218
 20
180.0000002733392
 30
0.0
 40
1.0000000000072751
 50
90.000000000000398
 51
179.99999999958311
  0
LINE
  5
2473
  8
SAPA_PROFIL
 10
60.050000070869942
 20
180.0000002733465
 30
0.0
 11
60.050000070877218
 21
179.2114612987385
 31
0.0
  0
ARC
  5
2474
  8
SAPA_PROFIL
 10
70.050000070877175
 20
179.21146129866889
 30
0.0
 40
9.9999999999999574
 50
179.99999999960119
 51
193.21020964723201
  0
ARC
  5
2475
  8
SAPA_PROFIL
 10
11.63770824328779
 20
165.50000027334261
 30
0.0
 40
50.00000000000427
 50
347.5742080890036
 51
13.210209647592229
  0
ARC
  5
2476
  8
SAPA_PROFIL
 10
57.5367574701568
 20
155.38677724259799
 30
0.0
 40
3.000000000002923
 50
269.3058149190436
 51
347.57420808905971
  0
ARC
  5
2477
  8
SAPA_PROFIL
 10
52.05000007086602
 20
21.000000273472178
 30
0.0
 40
131.49999999999429
 50
87.624524551177331
 51
89.999999999999886
  0
LINE
  5
2478
  8
SAPA_PROFIL
 10
52.050000070866297
 20
152.5000002734665
 30
0.0
 11
39.050000070886313
 21
152.50000027307721
 31
0.0
  0
ARC
  5
2479
  8
SAPA_PROFIL
 10
39.050000070886313
 20
154.50000027307721
 30
0.0
 40
2.0
 50
180.0
 51
270.0
  0
LINE
  5
247A
  8
SAPA_PROFIL
 10
37.050000070886313
 20
154.50000027307721
 30
0.0
 11
37.050000070886313
 21
156.0000002735793
 31
0.0
  0
ARC
  5
247B
  8
SAPA_PROFIL
 10
35.55000007088632
 20
156.0000002735793
 30
0.0
 40
1.5
 50
0.0
 51
90.0
  0
ARC
  5
247C
  8
SAPA_FOGBAND
 10
35.650000070786731
 20
150.82679519913
 30
0.0
 40
0.4000000000445613
 50
359.99999999953587
 51
171.53285559112149
  0
LINE
  5
247D
  8
SAPA_FOGBAND
 10
36.050000070831288
 20
150.82679519912671
 30
0.0
 11
36.050000070767631
 21
140.07679519946259
 31
0.0
  0
LINE
  5
247E
  8
SAPA_FOGBAND
 10
36.050000070767631
 20
140.07679519946259
 30
0.0
 11
36.050000070831288
 21
137.76076979533971
 31
0.0
  0
ARC
  5
247F
  8
SAPA_FOGBAND
 10
35.550000070831373
 20
137.76076979533889
 30
0.0
 40
0.4999999999999148
 50
330.00000000026893
 51
0.0000000000814222
  0
LINE
  5
2480
  8
SAPA_FOGBAND
 10
35.983012772724692
 20
137.51076979534099
 30
0.0
 11
35.7901924496947
 21
137.17679519911729
 31
0.0
  0
ARC
  5
2481
  8
SAPA_FOGBAND
 10
36.050000070832397
 20
137.02679519911669
 30
0.0
 40
0.3000000000023633
 50
150.00000000012139
 51
269.99999999978832
  0
LINE
  5
2482
  8
SAPA_FOGBAND
 10
36.050000070831288
 20
136.72679519911429
 30
0.0
 11
37.150000070765259
 21
136.7267951991403
 31
0.0
  0
ARC
  5
2483
  8
SAPA_FOGBAND
 10
37.150000070773991
 20
137.02679519913849
 30
0.0
 40
0.2999999999982492
 50
269.99999999833221
 51
344.9999999970168
  0
LINE
  5
2484
  8
SAPA_FOGBAND
 10
37.439777818654989
 20
136.9491494855931
 30
0.0
 11
37.862699443987943
 21
138.5275144789673
 31
0.0
  0
ARC
  5
2485
  8
SAPA_FOGBAND
 10
38.152477191878141
 20
138.44986876543561
 30
0.0
 40
0.300000000003602
 50
104.9999999999939
 51
165.00000000000441
  0
LINE
  5
2486
  8
SAPA_FOGBAND
 10
38.074831478346482
 20
138.73964651332579
 30
0.0
 11
38.361924838019718
 21
138.8165729472027
 31
0.0
  0
ARC
  5
2487
  8
SAPA_FOGBAND
 10
38.439570551551711
 20
138.52679519931149
 30
0.0
 40
0.3000000000046543
 50
20.000000000012541
 51
105.0000000000063
  0
LINE
  5
2488
  8
SAPA_FOGBAND
 10
38.721478337791837
 20
138.62940124231091
 30
0.0
 11
39.031907857007923
 21
137.77650314793229
 31
0.0
  0
ARC
  5
2489
  8
SAPA_FOGBAND
 10
38.750000070734131
 20
137.6738971049212
 30
0.0
 40
0.3000000000403162
 50
359.999999999924
 51
19.999999999925191
  0
LINE
  5
248A
  8
SAPA_FOGBAND
 10
39.050000070774452
 20
137.6738971049208
 30
0.0
 11
39.050000070759438
 21
133.68071827613721
 31
0.0
  0
ARC
  5
248B
  8
SAPA_FOGBAND
 10
38.55000007072281
 20
133.6807182761504
 30
0.0
 40
0.5000000000366285
 50
327.03724058308973
 51
359.99999999848552
  0
ARC
  5
248C
  8
SAPA_FOGBAND
 10
55.750000070805612
 20
122.5267951994921
 30
0.0
 40
20.000000000033111
 50
147.0372405845805
 51
212.96275941505789
  0
ARC
  5
248D
  8
SAPA_FOGBAND
 10
38.550000070774999
 20
111.3728721228476
 30
0.0
 40
0.499999999985352
 50
0.0000000196781173
 51
32.962759433301891
  0
LINE
  5
248E
  8
SAPA_FOGBAND
 10
39.050000070760348
 20
111.37287212301931
 30
0.0
 11
39.050000070775361
 21
107.37969329423569
 31
0.0
  0
ARC
  5
248F
  8
SAPA_FOGBAND
 10
38.750000070735041
 20
107.3796932942353
 30
0.0
 40
0.3000000000403133
 50
340.00000000007731
 51
0.0000000000787081
  0
LINE
  5
2490
  8
SAPA_FOGBAND
 10
39.031907857008832
 20
107.2770872512242
 30
0.0
 11
38.721478337792753
 21
106.4241891568456
 31
0.0
  0
ARC
  5
2491
  8
SAPA_FOGBAND
 10
38.43957055155262
 20
106.526795199845
 30
0.0
 40
0.3000000000046565
 50
254.99999999999369
 51
339.99999999998738
  0
LINE
  5
2492
  8
SAPA_FOGBAND
 10
38.361924838020627
 20
106.2370174519537
 30
0.0
 11
38.074831478347392
 21
106.3139438858306
 31
0.0
  0
ARC
  5
2493
  8
SAPA_FOGBAND
 10
38.152477191878852
 20
106.6037216337207
 30
0.0
 40
0.3000000000034457
 50
195.0000000000264
 51
255.0000000000372
  0
LINE
  5
2494
  8
SAPA_FOGBAND
 10
37.862699443988852
 20
106.526075920189
 30
0.0
 11
37.439777818655898
 21
108.10444091356339
 31
0.0
  0
ARC
  5
2495
  8
SAPA_FOGBAND
 10
37.150000070775299
 20
108.0267952000182
 30
0.0
 40
0.2999999999978243
 50
15.0000000029662
 51
90.000000000006764
  0
LINE
  5
2496
  8
SAPA_FOGBAND
 10
37.150000070775263
 20
108.32679520001599
 30
0.0
 11
36.050000070839019
 21
108.3267952000374
 31
0.0
  0
ARC
  5
2497
  8
SAPA_FOGBAND
 10
36.050000070830777
 20
108.0267952000351
 30
0.0
 40
0.3000000000022567
 50
89.999999998427185
 51
209.9999999994148
  0
LINE
  5
2498
  8
SAPA_FOGBAND
 10
35.790192449691972
 20
107.8767952000367
 30
0.0
 11
35.983012772725601
 21
107.5428206038152
 31
0.0
  0
ARC
  5
2499
  8
SAPA_FOGBAND
 10
35.550000070832283
 20
107.2928206038173
 30
0.0
 40
0.4999999999999144
 50
359.9999999999186
 51
29.999999999731131
  0
LINE
  5
249A
  8
SAPA_FOGBAND
 10
36.050000070832198
 20
107.29282060381659
 30
0.0
 11
36.050000070767631
 21
104.9767952008103
 31
0.0
  0
LINE
  5
249B
  8
SAPA_FOGBAND
 10
36.050000070767631
 20
104.9767952008103
 30
0.0
 11
36.050000070833107
 21
94.226795200029528
 31
0.0
  0
ARC
  5
249C
  8
SAPA_FOGBAND
 10
35.65000007083313
 20
94.226795200029528
 30
0.0
 40
0.3999999999999772
 50
188.46714440842169
 51
0.0
  0
LINE
  5
249D
  8
SAPA_FOGBAND
 10
35.254359886706077
 20
94.167898301096784
 30
0.0
 11
34.93613273765834
 21
96.305590608548755
 31
0.0
  0
ARC
  5
249E
  8
SAPA_FOGBAND
 10
34.738312645595592
 20
96.27614215907623
 30
0.0
 40
0.2000000000001326
 50
8.4671444101976139
 51
133.5601623674539
  0
LINE
  5
249F
  8
SAPA_FOGBAND
 10
34.600489473207404
 20
96.421072394544595
 30
0.0
 11
33.594558001716571
 21
95.464469611433969
 31
0.0
  0
ARC
  5
24A0
  8
SAPA_FOGBAND
 10
33.250000070746481
 20
95.826795200104741
 30
0.0
 40
0.5000000000000056
 50
138.99194758976469
 51
313.56016236743159
  0
LINE
  5
24A1
  8
SAPA_FOGBAND
 10
32.872691385981057
 20
96.154877745206704
 30
0.0
 11
34.359234809810573
 21
97.864465019705904
 31
0.0
  0
ARC
  5
24A2
  8
SAPA_FOGBAND
 10
32.850000070749431
 20
99.176795200114015
 30
0.0
 40
1.999999999999734
 50
318.99194758974869
 51
359.99999999985431
  0
LINE
  5
24A3
  8
SAPA_FOGBAND
 10
34.850000070749161
 20
99.176795200108927
 30
0.0
 11
34.850000070764168
 21
105.4517951995665
 31
0.0
  0
ARC
  5
24A4
  8
SAPA_FOGBAND
 10
29.850000070764519
 20
105.4517951995779
 30
0.0
 40
4.9999999999996412
 50
359.99999999986949
 51
51.209758602146877
  0
ARC
  5
24A5
  8
SAPA_FOGBAND
 10
35.394269001668917
 20
112.3498805877006
 30
0.0
 40
3.8500000000017081
 50
224.41634396158489
 51
231.20975860212661
  0
ARC
  5
24A6
  8
SAPA_FOGBAND
 10
36.59205214725884
 20
114.173731769489
 30
0.0
 40
6.0000000000621858
 50
194.2219248212553
 51
228.85584817442739
  0
ARC
  5
24A7
  8
SAPA_FOGBAND
 10
244.37237439815661
 20
122.52679519939819
 30
0.0
 40
213.82237432740581
 50
177.36579634922111
 51
182.63420365062771
  0
ARC
  5
24A8
  8
SAPA_FOGBAND
 10
36.592052147213771
 20
130.87985862984101
 30
0.0
 40
6.0000000000006786
 50
131.1441518142118
 51
165.77807517830249
  0
ARC
  5
24A9
  8
SAPA_FOGBAND
 10
35.394269001665499
 20
132.7037098114611
 30
0.0
 40
3.8499999999958252
 50
128.79024139790459
 51
135.58365601947889
  0
ARC
  5
24AA
  8
SAPA_FOGBAND
 10
29.850000070762889
 20
139.60179519957799
 30
0.0
 40
4.9999999999999138
 50
308.79024139785457
 51
0.0000000001367893
  0
LINE
  5
24AB
  8
SAPA_FOGBAND
 10
34.850000070762803
 20
139.60179519958999
 30
0.0
 11
34.850000070747797
 21
145.87679519904731
 31
0.0
  0
ARC
  5
24AC
  8
SAPA_FOGBAND
 10
32.85000007074818
 20
145.87679519904199
 30
0.0
 40
1.9999999999996161
 50
0.0000000001530737
 51
41.008052410272363
  0
LINE
  5
24AD
  8
SAPA_FOGBAND
 10
34.359234809808747
 20
147.18912537945059
 30
0.0
 11
32.872691385979238
 21
148.8987126539493
 31
0.0
  0
ARC
  5
24AE
  8
SAPA_FOGBAND
 10
33.250000070744591
 20
149.22679519905151
 30
0.0
 40
0.5000000000000826
 50
46.439837632563567
 51
221.0080524102591
  0
LINE
  5
24AF
  8
SAPA_FOGBAND
 10
33.594558001714738
 20
149.58912078772229
 30
0.0
 11
34.600489473205577
 21
148.63251800461171
 31
0.0
  0
ARC
  5
24B0
  8
SAPA_FOGBAND
 10
34.738312645593773
 20
148.77744824007999
 30
0.0
 40
0.2000000000001246
 50
226.4398376325432
 51
351.5328555898065
  0
LINE
  5
24B1
  8
SAPA_FOGBAND
 10
34.936132737656521
 20
148.74799979060751
 30
0.0
 11
35.254359886616037
 21
150.8856920980725
 31
0.0
  0
ARC
  5
24B2
  8
SAPA_FOGBAND
 10
37.961114669962569
 20
116.38903913312031
 30
0.0
 40
7.2514299889746026
 50
236.34060131425679
 51
245.5188005883337
  0
ARC
  5
24B3
  8
SAPA_FOGBAND
 10
35.453434561917682
 20
110.88164906275971
 30
0.0
 40
1.2000000000057851
 50
245.51880058939679
 51
29.8450309639931
  0
ARC
  5
24B4
  8
SAPA_FOGBAND
 10
55.750000070748541
 20
122.52679519947201
 30
0.0
 40
22.19999999998667
 50
150.154969035645
 51
209.84503096308859
  0
ARC
  5
24B5
  8
SAPA_FOGBAND
 10
35.45343456217735
 20
134.1719413366192
 30
0.0
 40
1.199999999997009
 50
330.15496903525337
 51
114.4811994087903
  0
ARC
  5
24B6
  8
SAPA_FOGBAND
 10
37.961114669886392
 20
128.6645512663008
 30
0.0
 40
7.2514299887880993
 50
114.4811994090899
 51
123.65939868633809
  0
ARC
  5
24B7
  8
SAPA_FOGBAND
 10
36.713248919242048
 20
130.53852246747431
 30
0.0
 40
4.9999999999901563
 50
123.6593986863549
 51
166.28848776717709
  0
ARC
  5
24B8
  8
SAPA_FOGBAND
 10
431.75480203373758
 20
122.5267951996295
 30
0.0
 40
400.0048019629844
 50
178.68254169204741
 51
181.31745830794691
  0
ARC
  5
24B9
  8
SAPA_FOGBAND
 10
36.713248919315362
 20
114.5150679318062
 30
0.0
 40
5.0000000000579803
 50
193.71151223242009
 51
236.3406013136416
  0
DIMENSION
  5
24D3
  8
SAPA_MATT
  2
*D8
 10
-14.44999992907276
 20
187.50000027351749
 30
0.0
 11
27.050000070902229
 21
190.00000027351749
 31
0.0
 70
     0
 13
68.550000070877203
 23
149.68566381061231
 33
0.0
 14
-14.44999992907276
 24
149.67605934109059
 34
0.0
 50
180.0
1001
ACAD
1000
DSTYLE
1002
{
1070
   287
1070
     4
1070
    40
1040
1.0
1070
   279
1070
     1
1002
}
  0
DIMENSION
  5
24D4
  8
SAPA_MATT
  2
*D7
 10
-44.949999929095007
 20
152.5000002733334
 30
0.0
 11
-44.949999929095043
 21
155.00000027342529
 31
0.0
 70
   128
 13
18.550000070905408
 23
157.50000027351729
 33
0.0
 14
2.0500000709768069
 24
152.5000002733334
 34
0.0
 50
270.0
1001
ACAD
1000
DSTYLE
1002
{
1070
    40
1040
1.0
1002
}
  0
DIMENSION
  5
24D5
  8
SAPA_MATT
  2
*D6
 10
-44.949999929095043
 20
92.500000274070089
 30
0.0
 11
-47.44999992909505
 21
122.5000002737017
 31
0.0
 70
     0
 13
2.0500000709768069
 23
152.5000002733334
 33
0.0
 14
2.0500000708358348
 24
92.500000274070089
 34
0.0
 50
270.0
1001
ACAD
1000
DSTYLE
1002
{
1070
   287
1070
     4
1070
    40
1040
1.0
1070
   279
1070
     1
1002
}
  0
DIMENSION
  5
24D6
  8
SAPA_MATT
  2
*D5
 10
-44.949999929094787
 20
92.500000274070089
 30
0.0
 11
-44.949999929094808
 21
90.000000274699914
 31
0.0
 70
   128
 13
18.550000070905408
 23
87.500000275329754
 33
0.0
 14
2.0500000708358348
 24
92.500000274070089
 34
0.0
 50
90.0
1001
ACAD
1000
DSTYLE
1002
{
1070
    40
1040
1.0
1002
}
  0
VIEWPORT
  5
C4
 67
     1
  8
0
 10
160.5543545598442
 20
116.00969601843509
 30
0.0
 40
404.96977709277462
 41
256.8421457311839
 68
     1
 69
     1
1001
ACAD
1000
MVIEW
1002
{
1070
    16
1010
0.0
1020
0.0
1030
0.0
1010
0.0
1020
0.0
1030
1.0
1040
0.0
1040
256.8421457311839
1040
160.5543545598442
1040
116.00969601843509
1040
50.0
1040
0.0
1040
0.0
1070
     0
1070
   100
1070
     1
1070
     1
1070
     0
1070
     0
1070
     0
1070
     0
1040
0.0
1040
0.0
1040
0.0
1040
10.0
1040
10.0
1040
10.0
1040
10.0
1070
     0
1002
{
1002
}
1002
}
  0
ENDSEC
  0
EOF
